Welcome Guest ( Log In | Register )

> 

Здесь релизы с живыми прямыми ссылками на lossless

> Cranial - Dark Towers, Bright Lights (2017), Atmospheric Sludge/Doom Metal
post Feb 9 2017, 16:44:30
Post #1

Serial Uploader
Group Icon
Group: V.I.P
Posts: 37,580
Releases: 35752
From: Lithuania
On Forums: 12 years 11 months
Thanks: 432252 time(s)
Lithuania


(IMG:https://metalarea.org/images/audiocovers/2017_Feb/acov_tid283266_thumb.jpg)

*Artist: Cranial
*Album: Dark Towers, Bright Lights
*Year: 2017
*Genre: Atmospheric Sludge/Doom Metal
*Country: Germany (IMG:https://metalarea.org/forum/style_images/flags/Germany.png)
*Format: mp3@CBR320kbps
*Size: 106MB

Tracklist:
01. Dark 11:24
02. Towers 10:45
03. Bright 11:43
04. Lights 10:54
******************************
Total playing time: 44:46




Technical info
(IMG:https://metalarea.org/images/spectrogram/2017_Feb/257b99668bac79ee9062573b53da8d7d.png)
Input File: 02. Towers.mp3
Channels : 2
Sample Rate : 44100
Precision : 16-bit
Duration : 00:10:46.02 = 28489306 samples = 48451.2 CDDA sectors
File Size : 26.1M
Bit Rate : 324k
Sample Encoding: MPEG audio (layer I, II or III)
Comments :
Title=Towers
Artist=Cranial
Album=Dark Towers, Bright Lights
Tracknumber=2
Year=2017
Discnumber=1/1



Register


Go to the top of the page
  Insert nick Quick quote
+Quote Post
 
Start new topic
Replies (1 - 4)
post Feb 9 2017, 20:34:45
Post #2

Group: Подсевший
Posts: 41
Releases: 0
From: Dnepropetrovsk
On Forums: 8 years 8 months
Thanks: 9 time(s)
Unknown


alternative hardcore post-hardcore post-metal screamo
- ёклмн, разницу в стилях хоть чуть-чуть делай ... (IMG:style_emoticons/default/look.gif)
Go to the top of the page
  Insert nick Quick quote
+Quote Post
post Feb 9 2017, 21:01:16
Post #3

Group: Дух
Posts: 1
Releases: 0
On Forums: 4 years 3 months
Thanks: 0 time(s)
Russian Federation


ровнячком, со стилем всё впорядке
Go to the top of the page
  Insert nick Quick quote
+Quote Post
post Apr 8 2021, 05:12:38
Post #4

Два Литра
**
Group: Завсегдатай
Posts: 167
Releases: 0
From: Russian Federation
On Forums: 14 years 8 months
Thanks: 3 time(s)
Russian Federation


Thank you very much, but unfortunately the link is no longer available (IMG:style_emoticons/default/6.gif)
Can anyone help?
Go to the top of the page
  Insert nick Quick quote
+Quote Post
post Apr 11 2021, 10:09:54
Post #5

Group Icon
Group: S-moderation team
Posts: 20,786
Releases: 1443
From: Zagreb
On Forums: 10 years 2 months
Thanks: 95294 time(s)
Croatia


Register
Register


Thanks:
Go to the top of the page
  Insert nick Quick quote
+Quote Post

Reply to this topicStart new topic
1 User(s) are reading this topic (1 Guests and 0 Anonymous Users)
0 Members:

 



- Lo-Fi Version Support form
Copyrights and abuse reports form
Time is now: 15th May 2021 - 16:05:25