Welcome Guest ( Log In | Register )

Объявления

* gmail.com упорно продолжает считать почту с нас "unsolicited" и отбивает в том числе и письма активации, поэтому просьба использовать альтернативные почтовые ящики.
------------
* gmail.com continues reject all mail from us as "unsolicited" (activation mails too) therefore please use alternate mail servers.
> Najash - La Ofrenda [ep] (2016), Black/Death Metal
post Feb 11 2017, 15:40:17
Post #1

Serial Uploader
Group Icon
Group: V.I.P
Posts: 42,638
Releases: 40702
From: Lithuania
On Forums: 15 years 11 months
Thanks: 521651 time(s)
Lithuania


(IMG:http://metalarea.org/images/audiocovers/2017_Feb/acov_tid283366_thumb.jpg)

*Artist: Najash
*Album: La Ofrenda [ep]
*Year: 2016
*Genre: Black/Death Metal
*Country: Argentina (IMG:http://metalarea.org/forum/style_images/flags/Argentina.png)
*Format: mp3@CBR320kbps
*Size: 34MB

Tracklist:
01. Han Vuelto 04:10
02. Bajo El Umbral 02:43
03. Llenas De Tiempo 03:10
04. Hacia El Altar 04:25
******************************
Total playing time: 14:28



Technical info
(IMG:http://metalarea.org/images/spectrogram/2017_Feb/e1860d1bffcbc93d40b3bba619c66e03.png)
Input File: 02. Bajo el umbral.mp3
Channels : 2
Sample Rate : 44100
Precision : 16-bit
Duration : 00:02:43.96 = 7230592 samples = 12296.9 CDDA sectors
File Size : 6.77M
Bit Rate : 330k
Sample Encoding: MPEG audio (layer I, II or III)
Comments :
Title=Bajo el umbral
Artist=NAJASH
Album=La Ofrenda
Tracknumber=2
Year=2016



Register


Go to the top of the page
  Insert nick Quick quote
+Quote Post
 
Start new topic
Replies (1 - 3)
post Feb 11 2017, 17:22:46
Post #2

Common dweller of hell
**************
Group: Металариец
Posts: 5,397
Releases: 12
From: Dnipro
On Forums: 15 years 10 months
Thanks: 2198 time(s)
Ukraine


Совсем даже не плохо на, doom не услышал на, такой себе melodic black/thrash metal на.
Пожалуй лося возьму с кампа.
Go to the top of the page
  Insert nick Quick quote
+Quote Post
post Feb 13 2017, 07:38:54
Post #3

hearer & reader
**************
Group: Металариец
Posts: 10,929
Releases: 234
From: Moscow
On Forums: 16 years 8 months
Thanks: 13680 time(s)
Russian Federation


Скорее Progressive Death/Black. Будем посмотреть полноформат, если сподобятся.
Go to the top of the page
  Insert nick Quick quote
+Quote Post
post Mar 7 2019, 08:16:34
Post #4

Ich bin die Trauer menschlich, kommen Sie zu mir und ich werde Ihnen vergelten
**************
Group: Металариец
Posts: 4,077
Releases: 691
From: Koenigsberg
On Forums: 16 years 4 months
Thanks: 12640 time(s)
Russian Federation


Register



Go to the top of the page
  Insert nick Quick quote
+Quote Post

Reply to this topicStart new topic
2 User(s) are reading this topic (2 Guests and 0 Anonymous Users)
0 Members:

 



- Lo-Fi Version Support form
Copyrights and abuse reports form
Time is now: 30th May 2024 - 23:02:53