Welcome Guest ( Log In | Register )

Объявления

* gmail.com упорно продолжает считать почту с нас "unsolicited" и отбивает в том числе и письма активации, поэтому просьба использовать альтернативные почтовые ящики.
------------
* gmail.com continues reject all mail from us as "unsolicited" (activation mails too) therefore please use alternate mail servers.

> 

Здесь релизы с живыми прямыми ссылками на lossless

> Bathsheba - The Sleepless Gods [ep] (2015), Occult Doom Metal
post Feb 14 2017, 03:39:16
Post #1

Аннигилятор пивА
Group Icon
Group: V.I.P
Posts: 52,572
Releases: 16538
From: Koenigsberg - TILZIT
On Forums: 18 years 1 month
Thanks: 372059 time(s)
Russian Federation


(IMG:https://metalarea.org/images/audiocovers/2017_Feb/acov_tid283493_thumb.jpg)

*Artist: Bathsheba
*Album: The Sleepless Gods [ep]
*Year: 2015
*Genre: Occult Doom Metal
*Country: Belgium (IMG:https://metalarea.org/forum/style_images/flags/Belgium.png)
*Format: mp3@CBR320kbps
*Size: 33MB

Tracklist:
1. The Sleepless Gods 07:24
2. Daughter of the Oath 06:54
******************************
Total playing time: 14:18




Extended info
10"EP released by Svart Records on May 15th, 2015.
Available on Black vinyl.
Raf - Bass (Death Penalty, Torturerama, ex-Gorath, ex-Viggen)
Jelle - Drums (ex-Sardonis, Victim 34)
Dwight - Guitars (Disinterred)
Michelle - Vocals (Death Penalty, Leviathan Speaks, ex-Serpentcult, ex-Eveline)



Technical info
(IMG:https://metalarea.org/images/spectrogram/2017_Feb/d83dc46247ef42fb9468ec3617dbb3d3.png)
Input File: 02. Daughter Of The Oath.mp3
Channels : 2
Sample Rate : 44100
Precision : 16-bit
Duration : 00:06:54.29 = 18270233 samples = 31071.8 CDDA sectors
File Size : 16.7M
Bit Rate : 322k
Sample Encoding: MPEG audio (layer I, II or III)
Comments :
Title=Daughter Of The Oath
Artist=Bathsheba
Album=The Sleepless Gods (EP)
Tracknumber=02
Year=2015
Genre=Doom Metal / Occult
Discnumber=1/1



Register


Go to the top of the page
  Insert nick Quick quote
+Quote Post
 
Start new topic
Replies (1 - 2)
post Feb 14 2017, 10:55:57
Post #2

South Of Heaven /адепт ВУДУ
**************
Group: Металариец
Posts: 13,960
Releases: 9
On Forums: 14 years 3 months
Thanks: 5690 time(s)
Unknown


Отсюда 2-я песня не попала на альбом.

А демки нет, там тоже есть песня, которая только там.
Go to the top of the page
  Insert nick Quick quote
+Quote Post
post Apr 6 2019, 10:29:23
Post #3

Правь статус, ####!111
Group Icon
Group: S-moderation team
Posts: 22,058
Releases: 1443
On Forums: 13 years 4 months
Thanks: 128668 time(s)
Unknown


Register


Thanks:
Go to the top of the page
  Insert nick Quick quote
+Quote Post

Reply to this topicStart new topic
1 User(s) are reading this topic (1 Guests and 0 Anonymous Users)
0 Members:

 



- Lo-Fi Version Support form
Copyrights and abuse reports form
Time is now: 15th July 2024 - 21:17:40