Welcome Guest ( Log In | Register )

> Grima - Tales Of The Enchanted Woods (2017), Atmospheric Black Metal
post Feb 17 2017, 10:41:52
Post #1

Аннигилятор пивА
Group Icon
Group: V.I.P
Posts: 52,552
Releases: 16538
From: Koenigsberg - TILZIT
On Forums: 17 years 10 months
Thanks: 371813 time(s)
Russian Federation


(IMG:https://metalarea.org/images/audiocovers/2017_Feb/acov_tid283682_thumb.jpg)

*Artist: Grima
*Album: Tales Of The Enchanted Woods
*Year: 2017
*Genre: Atmospheric Black Metal
*Country: Russian Federation (IMG:https://metalarea.org/forum/style_images/flags/Russian%20Federation.png)
*Format: mp3@CBR320kbps
*Size: 102MB

Tracklist:
1. The Sentry Peak 01:57
2. The Moon and Its Shadows 07:08
3. Ritual 06:58
4. Wolfberry 04:13
5. Never Get Off the Trail 06:05
6. The Grief 07:14
7. The Shepherds of the Mountains and Plains 07:59
8. The Sorrow Bringer 02:24
******************************
Total playing time: 43:58





Extended info
Spiritual, tribal, dreamy sounds dedicated to the sacredness of Nature. Profoundly enjoyable.


Technical info
(IMG:https://metalarea.org/images/spectrogram/2017_Feb/2cfc416bce28542ef1d9150cc54a8745.png)
Input File: 05. Never Get Off The Trail.mp3
Channels : 2
Sample Rate : 44100
Precision : 16-bit
Duration : 00:06:06.01 = 16141129 samples = 27450.9 CDDA sectors
File Size : 14.8M
Bit Rate : 324k
Sample Encoding: MPEG audio (layer I, II or III)
Comments :
Title=Never Get Off The Trail
Artist=Grima
Album=Tales of the Enchanted Woods
Tracknumber=5
Year=2017



Register


Go to the top of the page
  Insert nick Quick quote
+Quote Post
 
Start new topic
Replies (1 - 9)
post Feb 17 2017, 21:26:50
Post #2

Ёлд ХеллоВяйне
Group Icon
Group: V.I.P
Posts: 34,800
Releases: 143
From: Питер
On Forums: 17 years 5 months
Thanks: 21961 time(s)
Russian Federation


Весьма (IMG:style_emoticons/default/20.gif)
Go to the top of the page
  Insert nick Quick quote
+Quote Post
post Feb 18 2017, 19:23:32
Post #3

Going home. Flying high.
**************
Group: Металариец
Posts: 13,612
Releases: 0
From: The Land of Shadows
On Forums: 17 years 8 months
Thanks: 32711 time(s)
Russian Federation


да, музыкально неплохо, весьма! хотя, если придираться, то "всё это уже было... в симпсонах" ©
и лирика на русском, если что. не всех может устроить))
Go to the top of the page
  Insert nick Quick quote
+Quote Post
post Jul 30 2017, 19:17:26
Post #4

Black is beautiful
***********
Group: Металариец
Posts: 1,980
Releases: 4
On Forums: 12 years 1 month
Thanks: 445 time(s)
Unknown


Beautiful! Wonderful atmosphere!
(IMG:style_emoticons/default/20.gif)


Thanks:
(1) NappyRob,
Go to the top of the page
  Insert nick Quick quote
+Quote Post
post Oct 7 2017, 23:28:59
Post #5

Group: Подсевший
Posts: 14
Releases: 0
On Forums: 17 years 10 months
Thanks: 15 time(s)
Spain


links are dead! Anybody can reupload?
Go to the top of the page
  Insert nick Quick quote
+Quote Post
post Oct 8 2017, 21:32:56
Post #6

Going home. Flying high.
**************
Group: Металариец
Posts: 13,612
Releases: 0
From: The Land of Shadows
On Forums: 17 years 8 months
Thanks: 32711 time(s)
Russian Federation


from the web
Register


Go to the top of the page
  Insert nick Quick quote
+Quote Post
post Feb 4 2019, 19:31:34
Post #7

Время Мары
**************
Group: Металариец
Posts: 3,673
Releases: 669
From: Харьков
On Forums: 14 years 10 months
Thanks: 13864 time(s)
Ukraine




Thanks:
Go to the top of the page
  Insert nick Quick quote
+Quote Post
post Jan 23 2021, 02:41:06
Post #8

Group: Подсевший
Posts: 31
Releases: 0
On Forums: 11 years 4 months
Thanks: 5 time(s)
Azerbaijan


QUOTE(Txape @ Oct 8 2017, 00:28:59) *
links are dead! Anybody can reupload?

Again...all links are dead. Please reupload!
Go to the top of the page
  Insert nick Quick quote
+Quote Post
post Jan 23 2021, 02:58:30
Post #9

Group: Подсевший
Posts: 14
Releases: 0
On Forums: 6 years 6 months
Thanks: 17 time(s)
Unknown


QUOTE(IronEagle @ Jan 23 2021, 02:41:06) *
Again...all links are dead. Please reupload!



Register


This post has been edited by Borderline1991: Jan 23 2021, 04:42:45
Reason for edit: hide
Go to the top of the page
  Insert nick Quick quote
+Quote Post
post Feb 8 2021, 09:21:08
Post #10

Group: Подсевший
Posts: 29
Releases: 2
From: Samara, Russia
On Forums: 18 years 6 months
Thanks: 30 time(s)
Russian Federation


Актуальная ссылка на 08.02.2021

Register


Go to the top of the page
  Insert nick Quick quote
+Quote Post

Reply to this topicStart new topic
2 User(s) are reading this topic (2 Guests and 0 Anonymous Users)
0 Members:

 



- Lo-Fi Version Support form
Copyrights and abuse reports form
Time is now: 19th April 2024 - 22:03:09