Welcome Guest ( Log In | Register )

> Norrsköld - Withering Virtue - The Second Chapter (2017), Melodic Black/Folk Metal (D4)
post Feb 28 2017, 14:29:04
Post #1

Serial Uploader
Group Icon
Group: V.I.P
Posts: 37,608
Releases: 35780
From: Lithuania
On Forums: 13 years 1 month
Thanks: 433167 time(s)
Lithuania


(IMG:http://metalarea.org/images/audiocovers/2017_Feb/acov_tid284324_thumb.jpg)

*Artist: Norrsköld
*Album: Withering Virtue - The Second Chapter
*Year: 2017
*Genre: Melodic Black/Folk Metal
*Country: Sweden (IMG:http://metalarea.org/forum/style_images/flags/Sweden.png)
*Format: mp3@CBR320kbps
*Size: 94MB

Tracklist:
01. Everfrozen
02. Feed the Ground
03. A Fiddler's Trance
04. Awaken the Dead
05. Fallen One
06. Impurity
07. Stormgryning
08. Cursed and Vicious
09. Shadows
10. Rite of Aeons
11. Malice
12. Månsorg
******************************
Total playing time: 43:21



Technical info
(IMG:http://metalarea.org/images/spectrogram/2017_Feb/237803652116816b4c693dd3edbe2ee6.png)
Input File: 02-norrskoeld-feed_the_ground-c5823733.mp3
Channels : 2
Sample Rate : 44100
Precision : 16-bit
Duration : 00:04:28.57 = 11843805 samples = 20142.5 CDDA sectors
File Size : 11.0M
Bit Rate : 327k
Sample Encoding: MPEG audio (layer I, II or III)
Comments :
Title=Feed The Ground
Artist=Norrskoeld
Album=Withering Virtue-The Second Chapter
Tracknumber=2/12
Year=2017
Genre=9



Register


Go to the top of the page
  Insert nick Quick quote
+Quote Post
 
Start new topic
Replies (1 - 4)
post Mar 1 2017, 00:59:39
Post #2

Going home. Flying high.
**************
Group: Металариец
Posts: 13,373
Releases: 0
From: The Land of Shadows
On Forums: 14 years 11 months
Thanks: 27249 time(s)
Russian Federation


scene rip, как пишут... вот ещё зеркало, из сети:
Register


Go to the top of the page
  Insert nick Quick quote
+Quote Post
post Mar 1 2017, 14:34:06
Post #3

Ъ
**************
Group: Металариец
Posts: 10,666
Releases: 9
On Forums: 12 years 6 months
Thanks: 2175 time(s)
Sweden



Пока только треть прослушал, неплохо, на разик прогоню.
Go to the top of the page
  Insert nick Quick quote
+Quote Post
post Jun 21 2017, 17:47:55
Post #4

MDM-Thrash Metal
**************
Group: Металариец
Posts: 10,482
Releases: 1257
From: Одесса
On Forums: 13 years 11 months
Thanks: 30646 time(s)
Ukraine


Go to the top of the page
  Insert nick Quick quote
+Quote Post
post Jul 21 2021, 21:53:52
Post #5

Три Литра
***
Group: Завсегдатай
Posts: 226
Releases: 0
On Forums: 3 years 1 month
Thanks: 77 time(s)
Mexico


mp3@CBR320kbps
http://mortuusinsomnis06.blogspot.com
Register
Go to the top of the page
  Insert nick Quick quote
+Quote Post

Reply to this topicStart new topic
2 User(s) are reading this topic (2 Guests and 0 Anonymous Users)
0 Members:

 



- Lo-Fi Version Support form
Copyrights and abuse reports form
Time is now: 26th July 2021 - 00:28:39