Welcome Guest ( Log In | Register )

> The Furor - Cavalries Of The Occult (2017), Old School Death/Black Metal
post Mar 2 2017, 11:03:17
Post #1

Аннигилятор пивА
Group Icon
Group: V.I.P
Posts: 52,360
Releases: 16550
From: Koenigsberg - TILZIT
On Forums: 15 years 2 months
Thanks: 367974 time(s)
Russian Federation


(IMG:http://metalarea.org/images/audiocovers/2017_Mar/acov_tid284479_thumb.jpg)

*Artist: The Furor
*Album: Cavalries Of The Occult
*Year: 2017
*Genre: Old School Death/Black Metal
*Country: Australia (IMG:http://metalarea.org/forum/style_images/flags/Australia.png)
*Format: mp3@CBR320kbps
*Size: 126MB

Tracklist:
01. Death Manifest
02. Cavalries Of The Occult
03. Second Coming Slaughtered
04. The Flames Of Fate
05. Storm Of Swords
06. The 30 Year War
07. Rampage Upon The Rational
08. Fomes Peccati
09. Totaliterror
******************************
Total playing time: 54:25




Extended info
Supreme Australian Black/Death Metal overkill!

Dizazter - Khaos Drum Molestations/ Vocal Missiles (Bloodlust, Depravity, Impiety, Mhorgl, ex-Dybbuk, ex-Malignant Monster, ex-Militant Mass, ex-Pagan, ex-Pathogen, ex-Shrapnel, ex-Psychonaut, ex-Earth Rot, ex-Nervecell, ex-Choke)
Hellhound - Merciless Christ Axecution (ex-Samain, ex-Magan, ex-Nazgul)
The Grand Impaler - Ballistic Bass from Beyond (Bloodlust, Infected, Mhorgl, Tyrant)



Technical info
(IMG:http://metalarea.org/images/spectrogram/2017_Mar/7750875a3e25a32c9ac08ca47ef92fcd.png)
Input File: 03 Second Coming Slaughtered.mp3
Channels : 2
Sample Rate : 44100
Precision : 16-bit
Duration : 00:05:06.11 = 13499363 samples = 22958.1 CDDA sectors
File Size : 12.5M
Bit Rate : 327k
Sample Encoding: MPEG audio (layer I, II or III)
Comments :
Title=Second Coming Slaughtered
Artist=The Furor
Album=Cavalries of the Occult
Tracknumber=3
Year=2017
Genre=Black Metal



Register


Go to the top of the page
  Insert nick Quick quote
+Quote Post
 
Start new topic
Replies (1 - 8)
post Mar 2 2017, 11:58:31
Post #2

Аннигилятор пивА
Group Icon
Group: V.I.P
Posts: 52,360
Releases: 16550
From: Koenigsberg - TILZIT
On Forums: 15 years 2 months
Thanks: 367974 time(s)
Russian Federation


Сумасшедший барабанер, он еще и поет (IMG:style_emoticons/default/fear.gif) злейший олдскул
зеркало
Register


Go to the top of the page
  Insert nick Quick quote
+Quote Post
post Mar 2 2017, 12:38:53
Post #3

\m/
Group Icon
Group: S-moderation team
Posts: 7,941
Releases: 19
From: Петропавловск-Камчатский
On Forums: 12 years 1 month
Thanks: 8023 time(s)
Russian Federation


ЦИТАТА(aesteticvice @ 2nd March 2017 - 22:58:31) *
Сумасшедший барабанер

Другого и не надо. Превью порадовало (IMG:style_emoticons/default/metaler.gif)
Go to the top of the page
  Insert nick Quick quote
+Quote Post
post Jun 23 2018, 15:05:27
Post #4

melofags sniper
**************
Group: Металариец
Posts: 6,298
Releases: 0
On Forums: 13 years 5 months
Thanks: 6947 time(s)
Unknown


Sounds good. (IMG:style_emoticons/default/9.gif)
Go to the top of the page
  Insert nick Quick quote
+Quote Post
post Jan 14 2020, 13:03:24
Post #5

Crush! Kill! Destroy!
**************
Group: Металариец
Posts: 5,686
Releases: 15
From: Kaliningrad
On Forums: 13 years 8 months
Thanks: 5406 time(s)
Russian Federation


Раздайте плиз!
Go to the top of the page
  Insert nick Quick quote
+Quote Post
post Jan 14 2020, 14:29:18
Post #6

Шесть Литров
******
Group: Металариец
Posts: 510
Releases: 0
On Forums: 13 years 1 month
Thanks: 955 time(s)
Russian Federation


320 cbr

Register


Go to the top of the page
  Insert nick Quick quote
+Quote Post
post Jul 4 2020, 19:49:17
Post #7

Восемь Литров
********
Group: Металариец
Posts: 882
Releases: 0
On Forums: 12 years 5 months
Thanks: 12 time(s)
Netherlands


Anybody got a working link, please?
Go to the top of the page
  Insert nick Quick quote
+Quote Post
post Jul 4 2020, 19:55:21
Post #8

melofags sniper
**************
Group: Металариец
Posts: 6,298
Releases: 0
On Forums: 13 years 5 months
Thanks: 6947 time(s)
Unknown


Go to the top of the page
  Insert nick Quick quote
+Quote Post
post Jul 4 2020, 20:00:55
Post #9

Добрый
**************
Group: Металариец
Posts: 5,044
Releases: 0
On Forums: 3 years 1 month
Thanks: 12821 time(s)
Russian Federation


124 mb/320 kbps
Register


Go to the top of the page
  Insert nick Quick quote
+Quote Post

Reply to this topicStart new topic
1 User(s) are reading this topic (1 Guests and 0 Anonymous Users)
0 Members:

 



- Lo-Fi Version Support form
Copyrights and abuse reports form
Time is now: 5th August 2021 - 18:22:41