Welcome Guest ( Log In | Register )

> Forbidden Site - Sturm Und Drang (1997), Gothic Black Metal
post Mar 5 2017, 14:05:41
Post #1

Group Icon
Group: S-moderation team
Posts: 16,802
Releases: 1441
From: Zagreb
On Forums: 9 years 6 months
Thanks: 76180 time(s)
Croatia


(IMG:https://metalarea.org/images/audiocovers/2017_Mar/acov_tid284677_thumb.jpg)

*Artist: Forbidden Site
*Album: Sturm Und Drang
*Year: 1997
*Genre: Gothic Black Metal
*Country: France (IMG:https://metalarea.org/forum/style_images/flags/France.png)
*Format: mp3@CBR320kbps
*Size: 151MB

Tracklist:
1. Ars Gallica 04:35
2. Sérénade Macabre 09:10
3. Der Sieg der Finsternis 08:17
4. Aurélia 06:33
5. Dark Embrace 06:26
6. Evanescence 04:34
7. Ars Vampirica 06:45
8. Renaissance Noire 06:43
9. Pleurs Nocternels 12:30
10. Untitled (hidden track) 03:06
******************************
Total playing time: 1:08:39

(IMG:https://metalarea.org/images/youtube.png)

Extended info
Solistitium Records CD. Also released as a tape by Bestial Records.


Technical info
(IMG:https://metalarea.org/images/spectrogram/2017_Mar/a5e622fff6f2930759ea2704d1d8fb2b.png)
Input File: 02 S?r?nade Macabre.mp3
Channels : 2
Sample Rate : 44100
Precision : 16-bit
Duration : 00:09:10.87 = 24293323 samples = 41315.2 CDDA sectors
File Size : 22.0M
Bit Rate : 320k
Sample Encoding: MPEG audio (layer I, II or III)
Comments :
Title=SГ©rГ©nade Macabre
Artist=Forbidden Site
Album=Sturm und Drang
Tracknumber=2
Year=1997
Genre=Gothic Black Metal



Register


Go to the top of the page
  Insert nick Quick quote
+Quote Post
 
Start new topic
Replies (1 - 5)
post Mar 12 2017, 08:10:00
Post #2

Правь статус, ####!111
**************
Group: Металариец
Posts: 2,784
Releases: 18
From: Eternal darkness
On Forums: 12 years 11 months
Thanks: 7464 time(s)
Russian Federation


Register


Thanks:
Go to the top of the page
  Insert nick Quick quote
+Quote Post
post Dec 11 2017, 20:40:14
Post #3

Два Литра
**
Group: Завсегдатай
Posts: 133
Releases: 0
On Forums: 11 years 6 months
Thanks: 11 time(s)
Russian Federation


Someone re-up this please?
Go to the top of the page
  Insert nick Quick quote
+Quote Post
post Dec 11 2017, 20:45:18
Post #4

Forever Underground
**************
Group: Металариец
Posts: 7,378
Releases: 0
On Forums: 5 years 5 months
Thanks: 9551 time(s)
Unknown


QUOTE(Lost Patrol @ Dec 11 2017, 20:40:14) *
Someone re-up this please?

Link in the first post is valid (IMG:style_emoticons/default/bye.gif)
Register
Go to the top of the page
  Insert nick Quick quote
+Quote Post
post Dec 12 2017, 06:08:40
Post #5

Два Литра
**
Group: Завсегдатай
Posts: 133
Releases: 0
On Forums: 11 years 6 months
Thanks: 11 time(s)
Russian Federation


QUOTE(thenecromancer @ Dec 11 2017, 22:45:18) *
Link in the first post is valid (IMG:style_emoticons/default/bye.gif)



Cheers! I'll make sure to check the first posts from now on!
Go to the top of the page
  Insert nick Quick quote
+Quote Post
post Dec 12 2017, 09:27:54
Post #6

Forever Underground
**************
Group: Металариец
Posts: 7,378
Releases: 0
On Forums: 5 years 5 months
Thanks: 9551 time(s)
Unknown


QUOTE(Lost Patrol @ Dec 12 2017, 06:08:40) *
Cheers! I'll make sure to check the first posts from now on!

Usually, ALL the links posted by Borderline1991 are actually valid (IMG:style_emoticons/default/smile3.gif)
Go to the top of the page
  Insert nick Quick quote
+Quote Post

Reply to this topicStart new topic
1 User(s) are reading this topic (1 Guests and 0 Anonymous Users)
0 Members:

 



- Lo-Fi Version Support form
Copyrights and abuse reports form
Time is now: 25th September 2020 - 11:17:20