Welcome Guest ( Log In | Register )

 
Reply to this topicStart new topic
> Supreme Dominion - Triptolemus [ep] (2017), Black Metal
post Mar 6 2017, 06:14:56
Post #1

Аннигилятор пивА
Group Icon
Group: V.I.P
Posts: 52,462
Releases: 16543
From: Koenigsberg - TILZIT
On Forums: 17 years 5 days
Thanks: 370713 time(s)
Russian Federation


(IMG:https://metalarea.org/images/audiocovers/2017_Mar/acov_tid284702_thumb.jpg)

*Artist: Supreme Dominion
*Album: Triptolemus [ep]
*Year: 2017
*Genre: Black Metal
*Country: Greece (IMG:https://metalarea.org/forum/style_images/flags/Greece.png)
*Format: mp3@CBR320kbps
*Size: 60MB

Tracklist:
1. Triptolemus 06:44
2. Rat is dead 06:05
3. Where is your God? 07:24
4. Blood Communion 05:24
******************************
Total playing time: 25:37



Preview 3

Extended info
Hellenic Black Metal


Technical info
(IMG:https://metalarea.org/images/spectrogram/2017_Mar/334de207bb787e3ea259999baa73ef94.png)
Input File: Supreme Dominion - Triptolemus EP - 02 Rat is dead.mp3
Channels : 2
Sample Rate : 44100
Precision : 16-bit
Duration : 00:06:05.88 = 16135396 samples = 27441.1 CDDA sectors
File Size : 14.7M
Bit Rate : 322k
Sample Encoding: MPEG audio (layer I, II or III)
Comments :
Title=Rat is dead
Artist=Supreme Dominion
Album=Triptolemus EP
Tracknumber=2
Year=2017



Register


Go to the top of the page
  Insert nick Quick quote
+Quote Post

Reply to this topicStart new topic
1 User(s) are reading this topic (1 Guests and 0 Anonymous Users)
0 Members:

 



- Lo-Fi Version Support form
Copyrights and abuse reports form
Time is now: 1st June 2023 - 23:48:34