Welcome Guest ( Log In | Register )

> Forum rules / Правила раздела

Here go releases which can't go to New releases forums due lack of information, stolen links or incorrect data and just founded in other sites links with minimum info. Reissue of this releases through Add release form with added/corrected data, info and own links highly welcomed.

Сюда уходят релизы, не пропущенные в основные релизные форумы по причинам отсутствия, недостаточности или неверности/некорректности сопровождающей информации, содержащие ссылки, указывающие на файлы, залитые не автором темы, а так же просто найденные где-то ссылки с минимумом информации. Переоформление тем отсюда через форму Добавления релиза с перезаливкой ссылок крайне приветствуется.

> Synaptik - Justify & Reason (2017), Progressive Power/Thrash Metal
post Mar 9 2017, 17:27:28
Post #1

Правь статус, ####!111
**************
Group: Металариец
Posts: 27,448
Releases: 19929
From: Г.Харьков
On Forums: 9 years 4 months
Thanks: 402401 time(s)
Unknown


(IMG:http://metalarea.org/images/audiocovers/2017_Mar/acov_tid284948_thumb.jpg)

*Artist: Synaptik
*Album: Justify & Reason
*Year: 2017
*Genre: Progressive Power/Thrash Metal
*Country: United Kingdom (IMG:http://metalarea.org/forum/style_images/flags/United%20Kingdom.png)
*Format: mp3@CBR320kbps
*Size: 84MB

Tracklist:
1. The Incredible Machine 06:13
2. Human Inhuman 06:27
3. Conscience 08:45
4. White Circles 06:18
5. Esc Ctrl 07:17
******************************
Total playing time: 35:00



Technical info
(IMG:http://metalarea.org/images/spectrogram/2017_Mar/881514a8c704b21bf9b4436b9c93fc19.png)
Input File: 2 Human.mp3
Channels : 2
Sample Rate : 44100
Precision : 16-bit
Duration : 00:06:27.54 = 17090338 samples = 29065.2 CDDA sectors
File Size : 15.7M
Bit Rate : 325k
Sample Encoding: MPEG audio (layer I, II or III)
Comments :
Title=Human
Artist=Synaptik
Album=Justify & Reason
Tracknumber=2
Year=2017
Discnumber=1/1



Register


Register


Go to the top of the page
  Insert nick Quick quote
+Quote Post
 
Start new topic
Replies (1 - 5)
post Mar 10 2017, 12:09:08
Post #2

Четыре Литра
****
Group: Металариец
Posts: 387
Releases: 0
From: Сибирь
On Forums: 10 years 6 months
Thanks: 127 time(s)
Russian Federation


Обложка на бэндкампе чуть другая, название альбома присутствует, в отличии от этой
Go to the top of the page
  Insert nick Quick quote
+Quote Post
post Aug 28 2018, 18:39:36
Post #3

_ - = # Thrashogolic # = - _ ... а давайте поржём все вместе
**************
Group: Металариец
Posts: 21,095
Releases: 4443
From: 404
On Forums: 11 years 3 months
Thanks: 28083 time(s)
Ukraine


Ещё вот версия этого релиза

(IMG:https://f4.bcbits.com/img/a1872401405_7.jpg)
Go to the top of the page
  Insert nick Quick quote
+Quote Post
post Sep 4 2018, 18:02:53
Post #4

Common dweller of hell
**************
Group: Металариец
Posts: 4,016
Releases: 12
From: Dnipro
On Forums: 13 years 2 months
Thanks: 1568 time(s)
Ukraine


Версия с бонусами есть?
Go to the top of the page
  Insert nick Quick quote
+Quote Post
post Jul 30 2021, 09:51:14
Post #5

Шесть Литров
******
Group: Металариец
Posts: 574
Releases: 0
On Forums: 2 years 4 months
Thanks: 296 time(s)
Ukraine


Неплохо.
Для ценителей музыки Nevermore и Communic.
Go to the top of the page
  Insert nick Quick quote
+Quote Post
post Jul 31 2021, 14:12:09
Post #6

Правь статус, ####!111
Group Icon
Group: S-moderation team
Posts: 21,971
Releases: 1443
On Forums: 10 years 7 months
Thanks: 102827 time(s)
Unknown


Register


Go to the top of the page
  Insert nick Quick quote
+Quote Post

Reply to this topicStart new topic
2 User(s) are reading this topic (2 Guests and 0 Anonymous Users)
0 Members:

 



- Lo-Fi Version Support form
Copyrights and abuse reports form
Time is now: 28th September 2021 - 07:54:50