Welcome Guest ( Log In | Register )

Объявления

* gmail.com упорно продолжает считать почту с нас "unsolicited" и отбивает в том числе и письма активации, поэтому просьба использовать альтернативные почтовые ящики.
------------
* gmail.com continues reject all mail from us as "unsolicited" (activation mails too) therefore please use alternate mail servers.
 
Reply to this topicStart new topic
> AM:PM - Amazing Mega Party Motherfucker (2016), Deathcore/Metalcore
post Mar 12 2017, 15:51:49
Post #1

Carcassticism
**************
Group: Металариец
Posts: 5,441
Releases: 2536
On Forums: 16 years 1 week
Thanks: 16151 time(s)
Russian Federation


(IMG:http://metalarea.org/images/audiocovers/2017_Mar/acov_tid285157_thumb.jpg)

*Artist: AM:PM
*Album: Amazing Mega Party Motherfucker
*Year: 2016
*Genre: Deathcore/Metalcore
*Country: Switzerland (IMG:http://metalarea.org/forum/style_images/flags/Switzerland.png)
*Format: mp3@CBR320kbps
*Size: 134MB

Tracklist:
01. Before
02. Doomed
03. Speed Limit
04. Dictatorship Of Fear
05. Wolf
06. 4/20
07. Rugged Road
08. Scream Now
09. Rise Of The Mummies
10. AM : PM
11. Stronger Than I
******************************
Total playing time: 1:00:37




Technical info
(IMG:http://metalarea.org/images/spectrogram/2017_Mar/ef01c478146dc7633a5b158ad9964f98.png)
Input File: 02.Doomed.mp3
Channels : 2
Sample Rate : 44100
Precision : 16-bit
Duration : 00:05:38.18 = 14913870 samples = 25363.7 CDDA sectors
File Size : 14.0M
Bit Rate : 332k
Sample Encoding: MPEG audio (layer I, II or III)
Comments :
Title=Doomed
Artist=AM PM
Album=Amazing Mega Party Motherfucker
Tracknumber=2
Year=2016
Genre=Deathcore/Metalcore



Register


Go to the top of the page
  Insert nick Quick quote
+Quote Post

Reply to this topicStart new topic
2 User(s) are reading this topic (2 Guests and 0 Anonymous Users)
0 Members:

 



- Lo-Fi Version Support form
Copyrights and abuse reports form
Time is now: 21st May 2024 - 07:53:41