Welcome Guest ( Log In | Register )

> Cripta Oculta - Cripta Oculta [best of/compilation] (2017), Raw Black Metal
post Mar 14 2017, 19:26:04
Post #1

Правь статус, ####!111
**************
Group: Металариец
Posts: 2,133
Releases: 1696
From: Praha
On Forums: 6 years 7 months
Thanks: 44264 time(s)
Czech Republic


(IMG:http://metalarea.org/images/audiocovers/2017_Mar/acov_tid285281_thumb.jpg)

*Artist: Cripta Oculta
*Album: Cripta Oculta [best of/compilation]
*Year: 2017
*Genre: Raw Black Metal
*Country: Portugal (IMG:http://metalarea.org/forum/style_images/flags/Portugal.png)
*Format: mp3@CBR320kbps
*Size: 99MB

Tracklist:
1. Mistérios Do Sangue 05:05
2. Uma Noite De Trevas 07:59
3. Para O Reavivar Das Tradições 09:02
4. Batalha Nocturna 01:53
5. A Dança Do Fado Negro 11:06
6. A Mão De Ferro Que Esmaga Sião 07:27
******************************
Total playing time: 42:32



Extended info
Signal Rex, April 14
Compilation LP of unreleased tracks, four tracks plus two instrumental tracks, limited to 300 copies.
KVLT!


Technical info
(IMG:http://metalarea.org/images/spectrogram/2017_Mar/cc228ea36d328ee3e7b61b9f829bea4e.png)
Input File: 03. Para O Reavivar Das Tradi??es.mp3
Channels : 2
Sample Rate : 44100
Precision : 16-bit
Duration : 00:09:02.28 = 23914416 samples = 40670.8 CDDA sectors
File Size : 21.9M
Bit Rate : 324k
Sample Encoding: MPEG audio (layer I, II or III)
Comments :
Title=Para o reavivar das Tradições
Artist=Cripta Oculta
Album=Cripta Oculta
Tracknumber=03/06
Year=2017
Genre=Black Metal



Register


Go to the top of the page
  Insert nick Quick quote
+Quote Post
 
Start new topic
Replies (1 - 4)
post Mar 14 2017, 19:42:50
Post #2

Психиатр мой лучший друг
******
Group: Металариец
Posts: 527
Releases: 172
From: Уральских Гор
On Forums: 11 years 9 months
Thanks: 4175 time(s)
Russian Federation


Сразу да!!!






Go to the top of the page
  Insert nick Quick quote
+Quote Post
post Mar 15 2017, 06:08:20
Post #3

Правь статус, ####!111
**************
Group: Металариец
Posts: 2,784
Releases: 18
From: Eternal darkness
On Forums: 13 years 1 month
Thanks: 7540 time(s)
Russian Federation


Register


Go to the top of the page
  Insert nick Quick quote
+Quote Post
post Mar 15 2017, 09:57:34
Post #4

Sempiternus Necromant
**********
Group: Металариец
Posts: 1,045
Releases: 4
From: Сибирь - Алтайский Край
On Forums: 10 years 11 months
Thanks: 358 time(s)
Russian Federation


Cripta Oculta великолепны, культовы даже, для меня по крайней мере. (IMG:style_emoticons/default/true_black.gif) И кстати, о люди, Я смотрел сквозь пропасть в никуда и да познал смысл неописуемого. (IMG:style_emoticons/default/25.gif)


Thanks:
Go to the top of the page
  Insert nick Quick quote
+Quote Post
post Mar 22 2017, 05:38:03
Post #5

..ще до загибелі
**********
Group: Металариец
Posts: 1,156
Releases: 0
From: Мати Руських Міст
On Forums: 9 years 9 months
Thanks: 952 time(s)
Ukraine


гадаю, альбом гідний представник для споминів 2017-ого року
Go to the top of the page
  Insert nick Quick quote
+Quote Post

Reply to this topicStart new topic
1 User(s) are reading this topic (1 Guests and 0 Anonymous Users)
0 Members:

 



- Lo-Fi Version Support form
Copyrights and abuse reports form
Time is now: 4th December 2020 - 09:22:25