Welcome Guest ( Log In | Register )

> 

Здесь релизы с живыми прямыми ссылками на lossless

> Lantern - II: Morphosis (2017), Black/Death Metal
post Mar 16 2017, 13:27:48
Post #1

Serial Uploader
Group Icon
Group: V.I.P
Posts: 37,612
Releases: 35784
From: Lithuania
On Forums: 13 years 3 months
Thanks: 433517 time(s)
Lithuania


(IMG:https://metalarea.org/images/audiocovers/2017_Mar/acov_tid285386_thumb.jpg)

*Artist: Lantern
*Album: II: Morphosis
*Year: 2017
*Genre: Black/Death Metal
*Country: Finland (IMG:https://metalarea.org/forum/style_images/flags/Finland.png)
*Format: mp3@CBR320kbps
*Size: 104MB

Tracklist:
01. Black Miasma 05:21
02. Sleeper of Hypnagog 06:36
03. Hosting Yellow Fungi 02:45
04. Cleansing of the Air 05:26
05. Necrotic Epiphanies 03:53
06. Transmigration 04:50
07. Virgin Damnation 04:11
08. Morphosis 00:49
09. Lucid Endlessness 07:19
******************************
Total playing time: 41:10



Technical info
(IMG:https://metalarea.org/images/spectrogram/2017_Mar/b6ce1064d021873b2766175c703b70c5.png)
Input File: 02. Sleeper of hypnagog.mp3
Channels : 2
Sample Rate : 44100
Precision : 16-bit
Duration : 00:06:36.42 = 17482210 samples = 29731.6 CDDA sectors
File Size : 16.6M
Bit Rate : 336k
Sample Encoding: MPEG audio (layer I, II or III)
Comments :
Title=Sleeper of hypnagog
Artist=Lantern
Album=II: Morphosis
Tracknumber=2/9
Year=2017
Discnumber=1/1



Register


Go to the top of the page
  Insert nick Quick quote
+Quote Post
 
Start new topic
Replies (1 - 6)
post Mar 16 2017, 16:44:05
Post #2

Grind the Human Scum
**********
Group: Металариец
Posts: 1,056
Releases: 18
On Forums: 14 years 8 months
Thanks: 1070 time(s)
Russian Federation


Охотно ждал продолжения с момента выхода/прослушивания дебютной работы и дождался. Печально, но Морфозис никакой, шаблонное безатмосферное невнятное вср@тое месово. Обезличились на отлично (IMG:style_emoticons/default/hung.gif)
Go to the top of the page
  Insert nick Quick quote
+Quote Post
post Mar 17 2017, 13:26:34
Post #3

Crush! Kill! Destroy!
**************
Group: Металариец
Posts: 5,691
Releases: 15
From: Kaliningrad
On Forums: 13 years 10 months
Thanks: 5407 time(s)
Russian Federation


Понравился альбом. Правильной дорогой идут. Глядишь придут туда, где сегодня Venenum тусит, и будет счастье
Go to the top of the page
  Insert nick Quick quote
+Quote Post
post Mar 17 2017, 13:44:13
Post #4

Morbid Angel
**************
Group: Металариец
Posts: 4,175
Releases: 0
From: Литва г.Клайпеда
On Forums: 14 years 6 months
Thanks: 1814 time(s)
Lithuania




Thanks:
(2) gena, Storky,
Go to the top of the page
  Insert nick Quick quote
+Quote Post
post Mar 22 2017, 14:41:49
Post #5

добрый мизантроп
**************
Group: Металариец
Posts: 2,371
Releases: 1
From: Менск
On Forums: 10 years 10 months
Thanks: 1075 time(s)
Madagascar


В целом качественый дэз со множеством скоростных переходов, но есть момент:
местами звучание как в дум-дэте. Постоянные "долгие" (половинки и целые) квинты на гитарах утомляют, причем драмер в этих местах также косит под лар$а.
Go to the top of the page
  Insert nick Quick quote
+Quote Post
post Apr 26 2017, 07:48:12
Post #6

Восемь Литров
********
Group: Металариец
Posts: 854
Releases: 0
On Forums: 13 years 11 months
Thanks: 385 time(s)
Poland


не пронравилось. не типично скучно для данного жанра у финоф
Go to the top of the page
  Insert nick Quick quote
+Quote Post
post Mar 7 2019, 06:06:46
Post #7

Group Icon
Group: S-moderation team
Posts: 21,946
Releases: 1443
On Forums: 10 years 6 months
Thanks: 102503 time(s)
Unknown


Register


Go to the top of the page
  Insert nick Quick quote
+Quote Post

Reply to this topicStart new topic
2 User(s) are reading this topic (2 Guests and 0 Anonymous Users)
0 Members:

 



- Lo-Fi Version Support form
Copyrights and abuse reports form
Time is now: 20th September 2021 - 20:36:12