Welcome Guest ( Log In | Register )

Объявления

* gmail.com упорно продолжает считать почту с нас "unsolicited" и отбивает в том числе и письма активации, поэтому просьба использовать альтернативные почтовые ящики.
------------
* gmail.com continues reject all mail from us as "unsolicited" (activation mails too) therefore please use alternate mail servers.
 
Reply to this topicStart new topic
> Amalgama - Peace Of Mind [ep] (2004), Heavy/Power Metal (D)
post Mar 16 2017, 17:29:40
Post #1

Carcassticism
**************
Group: Металариец
Posts: 5,441
Releases: 2536
On Forums: 16 years 2 weeks
Thanks: 16156 time(s)
Russian Federation


(IMG:http://metalarea.org/images/audiocovers/2017_Mar/acov_tid285414_thumb.jpg)

*Artist: Amalgama
*Album: Peace Of Mind [ep]
*Year: 2004
*Genre: Heavy/Power Metal
*Country: Russian Federation (IMG:http://metalarea.org/forum/style_images/flags/Russian%20Federation.png)
*Format: mp3@CBR320kbps
*Size: 59MB

Tracklist:
1. Peace Of Mind
2. Think Twice
3. Nothing Other
4. Queen
5. Вера И Судьба
******************************
Total playing time: 28:02

(IMG:http://metalarea.org/images/myspace.png)

Technical info
(IMG:http://metalarea.org/images/spectrogram/2017_Mar/bfda091fead67711d0a561944e8ac53a.png)
Input File: 1. Peace Of Mind.mp3
Channels : 2
Sample Rate : 44100
Precision : 16-bit
Duration : 00:04:19.53 = 11445141 samples = 19464.5 CDDA sectors
File Size : 10.4M
Bit Rate : 321k
Sample Encoding: MPEG audio (layer I, II or III)
Comments :
Title=Peace Of Mind
Artist=Amalgama
Album=Peace Of Mind
Tracknumber=1
Year=2004
Genre=Heavy/Power Metal



Register


Thanks:
Go to the top of the page
  Insert nick Quick quote
+Quote Post

Reply to this topicStart new topic
2 User(s) are reading this topic (2 Guests and 0 Anonymous Users)
0 Members:

 



- Lo-Fi Version Support form
Copyrights and abuse reports form
Time is now: 26th May 2024 - 19:09:22