Welcome Guest ( Log In | Register )

Объявления

* gmail.com упорно продолжает считать почту с нас "unsolicited" и отбивает в том числе и письма активации, поэтому просьба использовать альтернативные почтовые ящики.
------------
* gmail.com continues reject all mail from us as "unsolicited" (activation mails too) therefore please use alternate mail servers.
> Amalgama - Stainless [ep] (2007), Heavy/Thrash Metal (D)
post Mar 16 2017, 17:47:27
Post #1

Carcassticism
**************
Group: Металариец
Posts: 5,441
Releases: 2536
On Forums: 16 years 2 weeks
Thanks: 16156 time(s)
Russian Federation


(IMG:http://metalarea.org/images/audiocovers/2017_Mar/acov_tid285417_thumb.jpg)

*Artist: Amalgama
*Album: Stainless [ep]
*Year: 2007
*Genre: Heavy/Thrash Metal
*Country: United States (IMG:http://metalarea.org/forum/style_images/flags/United%20States.png)
*Format: mp3@CBR320kbps
*Size: 58MB

Tracklist:
1. Before The Winter Comes
2. Slip Into Darkness
3. Cyclical
4. Transfusion
5. Dogs Of War
******************************
Total playing time: 25:26

(IMG:http://metalarea.org/images/myspace.png)

Technical info
(IMG:http://metalarea.org/images/spectrogram/2017_Mar/2f1b86aea9d052ba91e9a5532028c7d3.png)
Input File: 1. Before The Winter Comes.mp3
Channels : 2
Sample Rate : 44100
Precision : 16-bit
Duration : 00:05:00.33 = 13244641 samples = 22524.9 CDDA sectors
File Size : 12.0M
Bit Rate : 320k
Sample Encoding: MPEG audio (layer I, II or III)
Comments :
Title=Before The Winter Comes
Artist=Amalgama
Album=Stainless
Tracknumber=1
Year=2007
Genre=Heavy/Thrash Metal



Register


Go to the top of the page
  Insert nick Quick quote
+Quote Post
 
Start new topic
Replies (1 - 1)
post Dec 23 2023, 09:42:01    Сейчас играет: Re-up please ;-)
Post #2

Правь статус, ####!111
**************
Group: Металариец
Posts: 3,768
Releases: 0
From: Sofia
On Forums: 16 years 7 months
Thanks: 134 time(s)
Bulgaria


Re-up please (IMG:style_emoticons/default/pray.gif) (IMG:style_emoticons/default/pray.gif) (IMG:style_emoticons/default/pray.gif) (IMG:style_emoticons/default/pray.gif) (IMG:style_emoticons/default/pray.gif)
Go to the top of the page
  Insert nick Quick quote
+Quote Post

Reply to this topicStart new topic
2 User(s) are reading this topic (2 Guests and 0 Anonymous Users)
0 Members:

 



- Lo-Fi Version Support form
Copyrights and abuse reports form
Time is now: 26th May 2024 - 18:32:29