Welcome Guest ( Log In | Register )

> И неформату есть предел.

Рэп/хип-хоп/шансон/поп удаляются. Для них есть свои порталы.

> Nordvargr - Sigillum AKASHAI DASU (2017), Ritual Dark Ambient (D23)
post Mar 23 2017, 14:30:10
Post #1

As Above, so Below
***********
Group: Металариец
Posts: 1,867
Releases: 17
On Forums: 10 years 4 months
Thanks: 3759 time(s)
Russian Federation


(IMG:http://metalarea.org/images/audiocovers/2017_Mar/acov_tid285827_thumb.jpg)

*Artist: Nordvargr
*Album: Sigillum AKASHAI DASU
*Year: 2017
*Genre: Ritual Dark Ambient
*Country: Sweden (IMG:http://metalarea.org/forum/style_images/flags/Sweden.png)
*Format: mp3@CBR320kbps
*Size: 71MB

Tracklist:
1. ∴ LVX ∞ NOX ∴ 31:10
******************************
Total playing time: 31:10



Extended info
The fourth part of the "Sigillum" series which explores practical magick and musik in various combinations. Intended as background music for inner workings. Do not play casually and/or without focus. This is not entertainment.
Recorded @ Nar Mattaru March 2016 by Henrik Nordvargr Björkk.


Technical info
(IMG:http://metalarea.org/images/spectrogram/2017_Mar/a3f128ab4596c72233bf1ba1807fb0c0.png)
Input File: Nordvargr - ? LVX ? NOX ?.mp3
Channels : 2
Sample Rate : 44100
Precision : 16-bit
Duration : 00:31:10.00 = 82467000 samples = 140250 CDDA sectors
File Size : 74.8M
Bit Rate : 320k
Sample Encoding: MPEG audio (layer I, II or III)
Comments :
Title=∴ LVX ∞ NOX ∴
Artist=Nordvargr



Register


Go to the top of the page
  Insert nick Quick quote
+Quote Post
 
Start new topic
Replies (1 - 1)
post Feb 9 2020, 11:51:57
Post #2

Group Icon
Group: S-moderation team
Posts: 14,933
Releases: 1440
From: Zagreb
On Forums: 9 years 1 month
Thanks: 65453 time(s)
Croatia


Register
Go to the top of the page
  Insert nick Quick quote
+Quote Post

Reply to this topicStart new topic
1 User(s) are reading this topic (1 Guests and 0 Anonymous Users)
0 Members:

 



- Lo-Fi Version Support form
Copyrights and abuse reports form
Time is now: 7th April 2020 - 20:57:02