Welcome Guest ( Log In | Register )

> Calliophis - Cor Serpentis (2017), Death/Doom Metal
post Mar 26 2017, 20:29:50
Post #1

Правь статус, ####!111
**************
Group: Металариец
Posts: 26,672
Releases: 19234
From: Г.Харьков
On Forums: 9 years 2 months
Thanks: 384908 time(s)
Unknown


(IMG:http://metalarea.org/images/audiocovers/2017_Mar/acov_tid286032_thumb.jpg)

*Artist: Calliophis
*Album: Cor Serpentis
*Year: 2017
*Genre: Death/Doom Metal
*Country: Germany (IMG:http://metalarea.org/forum/style_images/flags/Germany.png)
*Format: mp3@CBR320kbps
*Size: 134MB

Tracklist:
1. The Cleansing 09:42
2. Yuki Onna 09:27
3. Edge of Existence 11:21
4. Munk (Heart of Stone) 10:55
5. Seven Suns 08:52
6. Isolation 11:59
******************************
Total playing time: 1:02:16



Technical info
(IMG:http://metalarea.org/images/spectrogram/2017_Mar/044376b22aa08d42e408b9df7ff083ae.png)
Input File: 02. Yuki Onna.mp3
Channels : 2
Sample Rate : 44100
Precision : 16-bit
Duration : 00:09:27.38 = 25021590 samples = 42553.7 CDDA sectors
File Size : 23.0M
Bit Rate : 325k
Sample Encoding: MPEG audio (layer I, II or III)
Comments :
Title=Yuki Onna
Artist=Calliophis
Album=Cor Serpentis
Tracknumber=2
Genre=Metal
Discnumber=1



Register


Go to the top of the page
  Insert nick Quick quote
+Quote Post
 
Start new topic
Replies (1 - 7)
post Mar 26 2017, 21:03:36
Post #2

Правь статус, ####!111
**************
Group: Металариец
Posts: 26,672
Releases: 19234
From: Г.Харьков
On Forums: 9 years 2 months
Thanks: 384908 time(s)
Unknown


Register


Go to the top of the page
  Insert nick Quick quote
+Quote Post
post Mar 27 2017, 09:05:05
Post #3

Morbid Angel
**************
Group: Металариец
Posts: 4,175
Releases: 0
From: Литва г.Клайпеда
On Forums: 14 years 4 months
Thanks: 1811 time(s)
Lithuania




Thanks:
Go to the top of the page
  Insert nick Quick quote
+Quote Post
post Mar 27 2017, 14:56:59
Post #4

...
**************
Group: Металариец
Posts: 3,564
Releases: 1492
From: МЕЩЁРА
On Forums: 13 years 3 months
Thanks: 43575 time(s)
Russian Federation




Thanks:
Go to the top of the page
  Insert nick Quick quote
+Quote Post
post Jun 4 2017, 13:55:28
Post #5

Old School Metal
**************
Group: Металариец
Posts: 3,950
Releases: 0
From: г. Минск
On Forums: 12 years 4 months
Thanks: 9280 time(s)
Belarus


(IMG:https://d.radikal.ru/d02/2010/47/bbea2b6b36c5.jpg)



Label: Solitude Productions

Lossless: FLAC (image+.cue+.log) + Covers

Register


Thanks:
Go to the top of the page
  Insert nick Quick quote
+Quote Post
post Mar 10 2018, 00:11:18
Post #6

赑屃
***
Group: Завсегдатай
Posts: 246
Releases: 5
From: Луганск
On Forums: 4 years 3 months
Thanks: 129 time(s)
Russian Federation


(IMG:style_emoticons/default/20.gif) Calliophis - Cor Serpentis (2017) Full Album https://youtu.be/buBqVXy-8jM

6 тем незамутнённого примесями, правильного мощного дум-дэза от лейпцигского квинтета. Всё по канонам - мощные гитары, густой гроул, неторопливая тягучесть.. 05. Seven Suns - вообще мёд.
Go to the top of the page
  Insert nick Quick quote
+Quote Post
post Jul 21 2021, 20:32:23
Post #7

aggresive exumator!
**********
Group: Металариец
Posts: 1,348
Releases: 0
On Forums: 9 years 10 months
Thanks: 45 time(s)
Unknown


reupload please
Go to the top of the page
  Insert nick Quick quote
+Quote Post
post Jul 23 2021, 05:39:10
Post #8

Добрый
**************
Group: Металариец
Posts: 5,012
Releases: 0
On Forums: 3 years 3 weeks
Thanks: 12712 time(s)
Russian Federation


133 mb/320 kbps
Register


Thanks:
(1) KVRT,
Go to the top of the page
  Insert nick Quick quote
+Quote Post

Reply to this topicStart new topic
1 User(s) are reading this topic (1 Guests and 0 Anonymous Users)
0 Members:

 



- Lo-Fi Version Support form
Copyrights and abuse reports form
Time is now: 27th July 2021 - 18:56:40