Welcome Guest ( Log In | Register )

> Black Phantom - Black Phantom (2017), Thrash Metal
post Mar 26 2017, 21:38:03
Post #1

Ich bin die Trauer menschlich, kommen Sie zu mir und ich werde Ihnen vergelten
**************
Group: Металариец
Posts: 4,074
Releases: 691
From: Koenigsberg
On Forums: 13 years 8 months
Thanks: 11514 time(s)
Russian Federation


(IMG:https://metalarea.org/images/audiocovers/2017_Mar/acov_tid286035_thumb.jpg)

*Artist: Black Phantom
*Album: Black Phantom
*Year: 2017
*Genre: Thrash Metal
*Country: United States (IMG:https://metalarea.org/forum/style_images/flags/United%20States.png)
*Format: mp3@CBR320kbps
*Size: 88MB

Tracklist:
01 A Minor Wave
02 Blood Oil
03 Dreading the Witch
04 I Am the Wolf
05 Expiration Date
06 Kill. With. Pleasure.
07 Operation Neptune
08 The Dead Walk the Earth
09 The Hive
10 The Alchemist
******************************
Total playing time: 37:48

Technical info
(IMG:https://metalarea.org/images/spectrogram/2017_Mar/a451c27ee68f3779e95c33dccb1577ef.png)
Input File: 01 A Minor Wave.mp3
Channels : 2
Sample Rate : 44100
Precision : 16-bit
Duration : 00:03:44.54 = 9902346 samples = 16840.7 CDDA sectors
File Size : 9.05M
Bit Rate : 322k
Sample Encoding: MPEG audio (layer I, II or III)
Comments :
Title=A Minor Wave
Artist=Black Phantom
Album=Black Phantom
Tracknumber=1
Year=2017
Genre=Thrash Metal



Register


Go to the top of the page
  Insert nick Quick quote
+Quote Post
 
Start new topic
Replies (1 - 3)
post Mar 27 2017, 09:11:42
Post #2

Morbid Angel
**************
Group: Металариец
Posts: 4,175
Releases: 0
From: Литва г.Клайпеда
On Forums: 14 years 6 months
Thanks: 1814 time(s)
Lithuania




Go to the top of the page
  Insert nick Quick quote
+Quote Post
post Sep 19 2018, 02:43:27
Post #3

_ - = # Thrashogolic # = - _ ... а давайте поржём все вместе
**************
Group: Металариец
Posts: 21,095
Releases: 4443
From: 404
On Forums: 11 years 3 months
Thanks: 28081 time(s)
Ukraine


ЦИТАТА(beast666 @ Mar 27 2017, 11:11:42) *
Там 7-трековая демка (если верить метал-архивам)

Но всё равно - хорошо, мне понравилось! (IMG:style_emoticons/default/20.gif)
Go to the top of the page
  Insert nick Quick quote
+Quote Post
post Oct 7 2018, 06:10:34
Post #4

Четыре Литра
****
Group: Металариец
Posts: 306
Releases: 0
From: ПСКОВ
On Forums: 14 years 9 months
Thanks: 48 time(s)
Russian Federation


Похоже, что всё наоборот, и на архивах трек листы перепутаны... Предполагаю, что в этом топике как раз демка 2016, а на BC дебютник 7-ми песенный...
Просто сравните звучание...
Go to the top of the page
  Insert nick Quick quote
+Quote Post

Reply to this topicStart new topic
2 User(s) are reading this topic (2 Guests and 0 Anonymous Users)
0 Members:

 



- Lo-Fi Version Support form
Copyrights and abuse reports form
Time is now: 20th September 2021 - 20:37:57