Welcome Guest ( Log In | Register )

 
Reply to this topicStart new topic
> D.O.C. - Parched Dredge [ep] (2017), Grindcore/Powerviolence
post Mar 29 2017, 20:18:03
Post #1

Правь статус, ####!111
**************
Group: Металариец
Posts: 3,497
Releases: 1809
From: Земля
On Forums: 7 years 7 months
Thanks: 10016 time(s)
Russian Federation


(IMG:https://metalarea.org/images/audiocovers/2017_Mar/acov_tid286206_thumb.jpg)

*Artist: D.O.C.
*Album: Parched Dredge [ep]
*Year: 2017
*Genre: Grindcore/Powerviolence
*Country: United States (IMG:https://metalarea.org/forum/style_images/flags/United%20States.png)
*Format: mp3@CBR320kbps
*Size: 11MB

Tracklist:
1. Elimination Stock 00:53
2. Pulse 00:42
3. Counterfeit Paradise 00:58
4. Dusted I 00:25
5. Dusted II 00:51
6. Obsolve 01:06
******************************
Total playing time: 4:55



Technical info
(IMG:https://metalarea.org/images/spectrogram/2017_Mar/977c93e83ba13aa48f7b819b6e75d02a.png)
Input File: D.O.C. - 1 Elimination Stock.mp3
Channels : 2
Sample Rate : 48000
Precision : 16-bit
Duration : 00:00:53.04 = 2545920 samples ~ 3978 CDDA sectors
File Size : 2.12M
Bit Rate : 320k
Sample Encoding: MPEG audio (layer I, II or III)



Register


Thanks:
(2) Rosen, wgs73,
Go to the top of the page
  Insert nick Quick quote
+Quote Post

Reply to this topicStart new topic
1 User(s) are reading this topic (1 Guests and 0 Anonymous Users)
0 Members:

 



- Lo-Fi Version Support form
Copyrights and abuse reports form
Time is now: 28th October 2021 - 21:48:01