Welcome Guest ( Log In | Register )

> Sincarnate - In Nomine Homini (2017), Doom/Death Metal
post Apr 3 2017, 14:10:52
Post #1

Serial Uploader
Group Icon
Group: V.I.P
Posts: 37,612
Releases: 35784
From: Lithuania
On Forums: 13 years 3 months
Thanks: 433535 time(s)
Lithuania


(IMG:http://metalarea.org/images/audiocovers/2017_Apr/acov_tid286555_thumb.jpg)

*Artist: Sincarnate
*Album: In Nomine Homini
*Year: 2017
*Genre: Doom/Death Metal
*Country: Romania (IMG:http://metalarea.org/forum/style_images/flags/Romania.png)
*Format: mp3@CBR320kbps
*Size: 150MB

Tracklist:
01. Attende Domine
02. Agrat Bat Mahlat
03. Curriculum Mortis
04. She-Of-The-Left-Hand (Sophia Pistis)
05. In Nomine Homini
06. The Grand Inquisitor
07. Lamentatio Christi
08. Dies Illa
09. L̄iwyᾱṯᾱn
10. De Luctum Perpetuum (Bonus Track)
11. Atonement (Bonus Track)
******************************
Total playing time: 1:01:36



(IMG:http://metalarea.org/images/youtube.png)

Technical info
(IMG:http://metalarea.org/images/spectrogram/2017_Apr/cfed2af92d7bfd099d351626367a9cf9.png)
Input File: 02. Agrat Bat Mahlat.mp3
Channels : 2
Sample Rate : 44100
Precision : 16-bit
Duration : 00:05:21.84 = 14192924 samples = 24137.6 CDDA sectors
File Size : 13.7M
Bit Rate : 340k
Sample Encoding: MPEG audio (layer I, II or III)
Comments :
Title=Agrat Bat Mahlat
Artist=Sincarnate
Album=In Nomine Homini
Tracknumber=2/11
Year=2017



Register


Go to the top of the page
  Insert nick Quick quote
+Quote Post
 
Start new topic
Replies (1 - 5)
post Apr 3 2017, 22:35:39
Post #2

Шесть Литров
******
Group: Металариец
Posts: 551
Releases: 0
On Forums: 12 years 4 months
Thanks: 194 time(s)
Belarus


Вот это действительно,зрелый и достойный внимания материал.А коллективы подобные Novembers Doom,давно пора отправить на помойку истории стиля.


Thanks:
Go to the top of the page
  Insert nick Quick quote
+Quote Post
post Apr 11 2017, 11:41:54
Post #3

Common dweller of hell
**************
Group: Металариец
Posts: 4,005
Releases: 12
From: Dnipro
On Forums: 13 years 2 months
Thanks: 1563 time(s)
Ukraine


Альбом практически на гране шедевра, как по мне это румынский вариант DARK LUNACY, ну очень уж похожи.
Но в отличии от сдувшихся итальяшек, тут материал на две головы круче чем последний альбом DARK LUNACY.
Иду слушать остальные работы этих славных румын (IMG:style_emoticons/default/20.gif)


Go to the top of the page
  Insert nick Quick quote
+Quote Post
post May 1 2017, 04:37:14
Post #4

ME[ta]LLOMAN
**************
Group: Металариец
Posts: 5,015
Releases: 3
From: Avdeyevka
On Forums: 15 years 5 months
Thanks: 2067 time(s)
Honduras


Register
(IMG:style_emoticons/default/bye.gif)


Go to the top of the page
  Insert nick Quick quote
+Quote Post
post Sep 29 2017, 06:01:55
Post #5

Crush! Kill! Destroy!
**************
Group: Металариец
Posts: 5,691
Releases: 15
From: Kaliningrad
On Forums: 13 years 10 months
Thanks: 5407 time(s)
Russian Federation


Узнал вчера на концерте об их существовании, изначально даже во флаерах их не было, добавили как-то на лету. Думал, что какая-то польская хрень локальная, но когда вокалист начал чесать на английском стало ясно, что не оттуда. Когда отыграли сэт - даже решил скачать послушать, ибо местами ооочень неплохо.
Go to the top of the page
  Insert nick Quick quote
+Quote Post
post Jun 30 2021, 20:13:52
Post #6

...
**************
Group: Металариец
Posts: 5,004
Releases: 512
From: МОРсквы
On Forums: 14 years 11 months
Thanks: 7648 time(s)
Russian Federation


ЦИТАТА(isvili @ 11th April 2017 - 13:41:54) *
Но в отличии от сдувшихся итальяшек, тут материал на две головы круче чем последний альбом DARK LUNACY.

до какого года их надо слушать, чтоб не слушать сдувшихся?
Go to the top of the page
  Insert nick Quick quote
+Quote Post

Reply to this topicStart new topic
2 User(s) are reading this topic (2 Guests and 0 Anonymous Users)
0 Members:

 



- Lo-Fi Version Support form
Copyrights and abuse reports form
Time is now: 24th September 2021 - 08:08:44