Welcome Guest ( Log In | Register )

> Helengard - Firebird (2017), Atmospheric Pagan/Folk Metal
post Apr 13 2017, 18:37:12
Post #1

Аннигилятор пивА
Group Icon
Group: V.I.P
Posts: 52,360
Releases: 16550
From: Koenigsberg - TILZIT
On Forums: 15 years 4 weeks
Thanks: 367729 time(s)
Russian Federation


(IMG:https://metalarea.org/images/audiocovers/2017_Apr/acov_tid287166_thumb.jpg)

*Artist: Helengard
*Album: Firebird
*Year: 2017
*Genre: Atmospheric Pagan/Folk Metal
*Country: Ukraine (IMG:https://metalarea.org/forum/style_images/flags/Ukraine.png)
*Format: mp3@CBR320kbps
*Size: 83MB

Tracklist:
01. Prologue
02. Fall Rue
03. Oktostitch I
04. Brumal Mud
05. Oktostitch II
06. Vernal Drawn
07. Oktostitch III
08. Summer Feast
09. Epilogue
******************************
Total playing time: 34:57




Extended info


Technical info
(IMG:https://metalarea.org/images/spectrogram/2017_Apr/6b5d8ea006f1ff07fec7c18815955dc2.png)
Input File: HELENGARD - Firebird - 02 Fall Rue.mp3
Channels : 2
Sample Rate : 44100
Precision : 16-bit
Duration : 00:06:26.62 = 17050030 samples = 28996.6 CDDA sectors
File Size : 15.6M
Bit Rate : 323k
Sample Encoding: MPEG audio (layer I, II or III)
Comments :
Title=Fall Rue
Artist=HELENGARD
Album=Firebird
Tracknumber=2
Year=2017



Register


Go to the top of the page
  Insert nick Quick quote
+Quote Post
 
Start new topic
Replies (1 - 7)
post Apr 13 2017, 18:51:36
Post #2

Аннигилятор пивА
Group Icon
Group: V.I.P
Posts: 52,360
Releases: 16550
From: Koenigsberg - TILZIT
On Forums: 15 years 4 weeks
Thanks: 367729 time(s)
Russian Federation


Register


Go to the top of the page
  Insert nick Quick quote
+Quote Post
post Apr 13 2017, 20:39:42
Post #3

i listen to black metal
**************
Group: Металариец
Posts: 2,950
Releases: 138
From: Москва
On Forums: 14 years 6 months
Thanks: 2318 time(s)
Russian Federation


Белов в Киев смотался?
Go to the top of the page
  Insert nick Quick quote
+Quote Post
post Apr 13 2017, 21:04:41
Post #4

ΕΥΜΕΝΙΔΕΣ
**************
Group: Металариец
Posts: 2,463
Releases: 28
From: Kænugarður
On Forums: 14 years 4 months
Thanks: 3503 time(s)
Ukraine


ЦИТАТА(Victim of fate @ Apr 13 2017, 22:39:42) *
Белов в Киев смотался?

Доброе утро, уже хрен знает когда.
Go to the top of the page
  Insert nick Quick quote
+Quote Post
post Apr 13 2017, 22:06:01
Post #5

Group: Подсевший
Posts: 41
Releases: 0
From: Dnepropetrovsk
On Forums: 8 years 9 months
Thanks: 9 time(s)
Unknown


забавно, атмосферно, да ...
Go to the top of the page
  Insert nick Quick quote
+Quote Post
post Apr 13 2017, 22:31:23
Post #6

Три Литра
***
Group: Завсегдатай
Posts: 270
Releases: 2
On Forums: 11 years 4 months
Thanks: 96 time(s)
Ukraine


ЦИТАТА(Victim of fate @ Apr 13 2017, 22:39:42) *
Белов в Киев смотался?
Даже знаю почему...Орест Лютий - "Заборонене!"- Сувора Українізація (IMG:style_emoticons/default/1488.gif)
Go to the top of the page
  Insert nick Quick quote
+Quote Post
post Apr 13 2017, 22:40:47
Post #7

Время Мары
**************
Group: Металариец
Posts: 3,239
Releases: 471
From: Харьков
On Forums: 12 years 2 weeks
Thanks: 9665 time(s)
Ukraine


ЦИТАТА(woldemort @ Apr 13 2017, 23:31:23) *

(IMG:style_emoticons/default/facessspalm.png)


Thanks:
Go to the top of the page
  Insert nick Quick quote
+Quote Post
post Apr 14 2017, 00:52:55
Post #8

FOLK METAL FEVER
**************
Group: Металариец
Posts: 2,222
Releases: 6
From: Kyiv
On Forums: 13 years 7 months
Thanks: 290 time(s)
Ukraine


ЦИТАТА(vasilisk @ Apr 14 2017, 00:40:47) *


Запиліть сюди новий альбум Ореста!:)


Thanks:
Go to the top of the page
  Insert nick Quick quote
+Quote Post

Reply to this topicStart new topic
1 User(s) are reading this topic (1 Guests and 0 Anonymous Users)
0 Members:

 



- Lo-Fi Version Support form
Copyrights and abuse reports form
Time is now: 25th June 2021 - 11:10:53