Welcome Guest ( Log In | Register )

 
Reply to this topicStart new topic
> Wine Guardian - Onirica (2017), Progressive/Heavy Metal
post Apr 25 2017, 07:52:03
Post #1

Аннигилятор пивА
Group Icon
Group: V.I.P
Posts: 52,360
Releases: 16550
From: Koenigsberg - TILZIT
On Forums: 15 years 6 months
Thanks: 368594 time(s)
Russian Federation


(IMG:https://metalarea.org/images/audiocovers/2017_Apr/acov_tid287779_thumb.jpg)

*Artist: Wine Guardian
*Album: Onirica
*Year: 2017
*Genre: Progressive/Heavy Metal
*Country: Italy (IMG:https://metalarea.org/forum/style_images/flags/Italy.png)
*Format: mp3@CBR320kbps
*Size: 116MB

Tracklist:
1. The Machine
2. Onirica
3. Periphery (Onirica II)
4. The Drifter
5. Grapes of Wrath (Onirica III)
6. The Black Decameron
7. Nebula
******************************
Total playing time: 50:08



Extended info
Stefano Capitani - bass and backing vocals
Lorenzo Parigi - guitars and vocals
Davide Sgarbi - drums and backing vocals



Technical info
(IMG:https://metalarea.org/images/spectrogram/2017_Apr/e5e053b8186bc6c686265dfc2ea3d6f1.png)
Input File: 1 - The Machine.mp3
Channels : 2
Sample Rate : 44100
Precision : 16-bit
Duration : 00:04:50.13 = 12794689 samples = 21759.7 CDDA sectors
File Size : 11.7M
Bit Rate : 322k
Sample Encoding: MPEG audio (layer I, II or III)
Comments :
Title=The Machine
Artist=Wine Guardian
Album=Onirica
Tracknumber=1/7
Year=2017
Genre=Heavy Metal



Register


Thanks:
Go to the top of the page
  Insert nick Quick quote
+Quote Post

Reply to this topicStart new topic
1 User(s) are reading this topic (1 Guests and 0 Anonymous Users)
0 Members:

 



- Lo-Fi Version Support form
Copyrights and abuse reports form
Time is now: 4th December 2021 - 23:34:23