Welcome Guest ( Log In | Register )

 
Reply to this topicStart new topic
> Pačess - Trapista (2016), Epic Black Metal
post Apr 25 2017, 10:30:33
Post #1

Правь статус, ####!111
**************
Group: Металариец
Posts: 6,574
Releases: 6048
From: Lithuania
On Forums: 15 years 7 months
Thanks: 46544 time(s)
Lithuania


(IMG:https://metalarea.org/images/audiocovers/2017_Apr/acov_tid287792_thumb.jpg)

*Artist: Pačess
*Album: Trapista
*Year: 2016
*Genre: Epic Black Metal
*Country: Czech Republic (IMG:https://metalarea.org/forum/style_images/flags/Czech%20Republic.png)
*Format: mp3@CBR320kbps
*Size: 77MB

Tracklist:
1. Staroch seděl na pekelci 05:25
2. Proudy deště ostré jak šípy 06:51
3. Jak otec pravil, já vydal se do kláštera 05:17
4. Kdosi je u závor, klepání jsem jakés vnímal 05:43
5. Dlouhou dobu a po právu já mistrem várečným měl být 04:34
6. Černý šat oblékám, v klášteře vystírám 05:57
******************************
Total playing time: 33:47

Bandzone


Technical info
(IMG:https://metalarea.org/images/spectrogram/2017_Apr/9d2bf4b8385405871bdeaa8d5c127220.png)
Input File: 02. Pacess - Proudy de?t? ostr? jak ??py.mp3
Channels : 2
Sample Rate : 44100
Precision : 16-bit
Duration : 00:06:51.04 = 18126820 samples = 30827.9 CDDA sectors
File Size : 16.4M
Bit Rate : 320k
Sample Encoding: MPEG audio (layer I, II or III)
Comments :
Title=Proudy deЕЎtД› ostrГ© jak ЕЎГ­py
Artist=PaДЌess
Album=Trapista
Tracknumber=2/6
Year=2016
Genre=9



Register


Go to the top of the page
  Insert nick Quick quote
+Quote Post

Reply to this topicStart new topic
1 User(s) are reading this topic (1 Guests and 0 Anonymous Users)
0 Members:

 



- Lo-Fi Version Support form
Copyrights and abuse reports form
Time is now: 24th May 2022 - 19:54:46