Welcome Guest ( Log In | Register )

> Pyramaze - Contingent (2017), Power Metal (D5)
post Apr 27 2017, 11:31:48
Post #1

Serial Uploader
Group Icon
Group: V.I.P
Posts: 39,288
Releases: 37423
From: Lithuania
On Forums: 14 years 5 months
Thanks: 469128 time(s)
Lithuania


(IMG:http://metalarea.org/images/audiocovers/2017_Apr/acov_tid287887_thumb.jpg)

*Artist: Pyramaze
*Album: Contingent
*Year: 2017
*Genre: Power Metal
*Country: Denmark (IMG:http://metalarea.org/forum/style_images/flags/Denmark.png)
*Format: mp3@CBR320kbps
*Size: 131MB

Tracklist:
01. Land Of Information 05:38
02. Kingdom Of Solace 05:53
03. Star Men 05:11
04. A World Divided 05:08
05. Nemesis 04:08
06. Contingent - Part I: The Campaign 01:42
07. 20 Second Century 05:04
08. Obsession 04:14
09. Heir Apparent 04:54
10. Contingent - Part II: The Hammer Of Remnant 01:55
11. Under Restraint 04:36
12. The Tides That Won't Change 03:34
13. Symphony Of Tears 04:55
******************************
Total playing time: 56:52

(IMG:http://metalarea.org/images/myspace.png)


Technical info
(IMG:http://metalarea.org/images/spectrogram/2017_Apr/eb3b8da9eed866bb17d005e8a2c7e0e4.png)
Input File: 02. Kingdom of Solace.mp3
Channels : 2
Sample Rate : 44100
Precision : 16-bit
Duration : 00:05:53.47 = 15587983 samples = 26510.2 CDDA sectors
File Size : 14.2M
Bit Rate : 322k
Sample Encoding: MPEG audio (layer I, II or III)
Comments :
Title=Kingdom of Solace
Artist=Pyramaze
Album=Contingent
Tracknumber=2/13
Year=2017
Genre=GetMetal.CLUB



Register


Go to the top of the page
  Insert nick Quick quote
+Quote Post
2 Pages V  < 1 2  
Start new topic
Replies (30 - 31)
post Apr 4 2022, 22:26:09
Post #31

Going home. Flying high.
**************
Group: Металариец
Posts: 13,609
Releases: 0
From: The Land of Shadows
On Forums: 16 years 3 months
Thanks: 30138 time(s)
Russian Federation


есть лось, из сети:
Register


Thanks:
(1) wreak,
Go to the top of the page
  Insert nick Quick quote
+Quote Post
post Apr 22 2022, 14:54:36
Post #32

Шесть Литров
******
Group: Металариец
Posts: 675
Releases: 0
From: Беларусь,Минск
On Forums: 12 years 6 months
Thanks: 59 time(s)
Unknown


Спасибо,по[hide][/hide]лучил
Go to the top of the page
  Insert nick Quick quote
+Quote Post

2 Pages V  < 1 2
Reply to this topicStart new topic
2 User(s) are reading this topic (2 Guests and 0 Anonymous Users)
0 Members:

 



- Lo-Fi Version Support form
Copyrights and abuse reports form
Time is now: 27th November 2022 - 03:01:36