Welcome Guest ( Log In | Register )

> Крада - Крысолов (2017), Pagan Black Metal
post May 7 2017, 17:42:05
Post #1

Аннигилятор пивА
Group Icon
Group: V.I.P
Posts: 52,360
Releases: 16550
From: Koenigsberg - TILZIT
On Forums: 15 years 4 weeks
Thanks: 367730 time(s)
Russian Federation


(IMG:https://metalarea.org/images/audiocovers/2017_May/acov_tid288433_thumb.jpg)

*Artist: Крада
*Album: Крысолов
*Year: 2017
*Genre: Pagan Black Metal
*Country: Russian Federation (IMG:https://metalarea.org/forum/style_images/flags/Russian%20Federation.png)
*Format: mp3@CBR320kbps
*Size: 76MB

Tracklist:
1. Крысолов. Ч. Первая. Гамельн
2. Исполнитель Желаний
3. Эхо
4. Крысолов. Ч. Вторая. Жажда
5. Стяги Войны
6. Свет Навьего Солнца
7. Крысолов. Ч. Третья. За Той Горой
8. Vogelbauer
******************************
Total playing time: 32:56

Preview 1

Technical info
(IMG:https://metalarea.org/images/spectrogram/2017_May/037d1b7e62a35d0e45a6cbb0d43c96c1.png)
Input File: 02. Исполнитель Желаний.mp3
Channels : 2
Sample Rate : 44100
Precision : 16-bit
Duration : 00:03:32.09 = 9352949 samples = 15906.4 CDDA sectors
File Size : 8.49M
Bit Rate : 320k
Sample Encoding: MPEG audio (layer I, II or III)
Comments :
Title=Р?сполнитель Желаний
Artist=Крада
Album=Крысолов
Tracknumber=2
Year=2017



Register


Go to the top of the page
  Insert nick Quick quote
+Quote Post
 
Start new topic
Replies (1 - 10)
post May 7 2017, 18:02:04
Post #2

Аннигилятор пивА
Group Icon
Group: V.I.P
Posts: 52,360
Releases: 16550
From: Koenigsberg - TILZIT
On Forums: 15 years 4 weeks
Thanks: 367730 time(s)
Russian Federation


Register




Go to the top of the page
  Insert nick Quick quote
+Quote Post
post May 7 2017, 21:49:34
Post #3

Leegte
***********
Group: Металариец
Posts: 1,683
Releases: 15
From: Kiovia
On Forums: 9 years 2 months
Thanks: 2462 time(s)
Ukraine


Ну наконец-то!!

Отличный альбом, хорошее продолжение Заговора.


Thanks:
Go to the top of the page
  Insert nick Quick quote
+Quote Post
post May 9 2017, 09:22:21
Post #4

Necromancer
Group Icon
Group: Curation team
Posts: 11,046
Releases: 271
From: Зеленоград
On Forums: 14 years 8 months
Thanks: 8913 time(s)
Russian Federation


Напористая штука. Порадовало.
Go to the top of the page
  Insert nick Quick quote
+Quote Post
post May 9 2017, 10:51:26
Post #5

0%Tolerance
**********
Group: Металариец
Posts: 1,046
Releases: 0
On Forums: 8 years 9 months
Thanks: 190 time(s)
Unknown


Не откровение. Хватило двух прослушиваний.


Thanks:
(1) aserius,
Go to the top of the page
  Insert nick Quick quote
+Quote Post
post May 9 2017, 11:24:27
Post #6

Сектант технодро4чер
**************
Group: Металариец
Posts: 5,581
Releases: 143
From: Тимчасово окупована територія
On Forums: 12 years 10 months
Thanks: 5952 time(s)
Ukraine


Добротный альбом в своем фирменном стиле.
Go to the top of the page
  Insert nick Quick quote
+Quote Post
post May 12 2017, 11:46:40
Post #7

Leegte
***********
Group: Металариец
Posts: 1,683
Releases: 15
From: Kiovia
On Forums: 9 years 2 months
Thanks: 2462 time(s)
Ukraine


Хотелось бы раза в полтора длиннее. Слушается на одном дыхании, но мало (IMG:style_emoticons/default/smile2.gif)
Go to the top of the page
  Insert nick Quick quote
+Quote Post
post Jul 4 2017, 19:27:23
Post #8

Котеги! Нравяцо котеги?
**************
Group: Металариец
Posts: 6,869
Releases: 0
From: Терра Инкогнита
On Forums: 11 years 4 weeks
Thanks: 3207 time(s)
Russian Federation


Я не понял, а где
ЦИТАТА(aesteticvice @ 7th May 2017 - 19:42:05) *
Pagan Black Metal

?

Неплохой модерн мелодик дет, но я честно говоря одидал другого


Thanks:
(1) Andrew,
Go to the top of the page
  Insert nick Quick quote
+Quote Post
post Aug 7 2017, 11:43:10
Post #9

for me your flesh
**********
Group: Металариец
Posts: 1,256
Releases: 0
On Forums: 3 years 10 months
Thanks: 1055 time(s)
Unknown


Возникает ощущение незавершенности, только раскочегарились, бац и конец. А так довольно приятный альбомец.
Go to the top of the page
  Insert nick Quick quote
+Quote Post
post Sep 5 2017, 22:45:22
Post #10

FOLK METAL FEVER
**************
Group: Металариец
Posts: 2,222
Releases: 6
From: Kyiv
On Forums: 13 years 7 months
Thanks: 290 time(s)
Ukraine


добротно и напористо, но раньше было лучше.


Thanks:
Go to the top of the page
  Insert nick Quick quote
+Quote Post
post Jul 8 2020, 18:40:59
Post #11

Group: Подсевший
Posts: 31
Releases: 0
From: Казань
On Forums: 12 years 5 months
Thanks: 0 time(s)
Russian Federation


все альбомы недоступны на сайте (IMG:style_emoticons/default/smile2.gif)
Go to the top of the page
  Insert nick Quick quote
+Quote Post

Reply to this topicStart new topic
2 User(s) are reading this topic (2 Guests and 0 Anonymous Users)
0 Members:

 



- Lo-Fi Version Support form
Copyrights and abuse reports form
Time is now: 25th June 2021 - 11:49:19