Welcome Guest ( Log In | Register )

> Magnox - Liberando El Dolor [ep] (2017), Thrash Metal (D5)
post May 19 2017, 22:43:25
Post #1

Правь статус, ####!111
**************
Group: Металариец
Posts: 35,617
Releases: 26512
From: Г.Харьков
On Forums: 11 years 11 months
Thanks: 573226 time(s)
Ukraine


(IMG:http://metalarea.org/images/audiocovers/2017_May/acov_tid289039_thumb.jpg)

*Artist: Magnox
*Album: Liberando El Dolor [ep]
*Year: 2017
*Genre: Thrash Metal
*Country: Argentina (IMG:http://metalarea.org/forum/style_images/flags/Argentina.png)
*Format: mp3@CBR320kbps
*Size: 51MB

Tracklist:
1. El Necio
2. Coma Of Souls (Kreator cover)
3. Thanx For Nothing (Overkill cover)
4. Liberando El Dolor
5. Ace Of Spades (Motorhead cover)
******************************
Total playing time: 22:41

(IMG:http://metalarea.org/images/youtube.png)


Extended info


Technical info
(IMG:http://metalarea.org/images/spectrogram/2017_May/00c4f2404b8502bb1c26794b069c8b67.png)
Input File: 02 - Coma Of Souls.mp3
Channels : 2
Sample Rate : 44100
Precision : 16-bit
Duration : 00:04:24.12 = 11647736 samples = 19809.1 CDDA sectors
File Size : 10.6M
Bit Rate : 320k
Sample Encoding: MPEG audio (layer I, II or III)
Comments :
Title=Coma Of Souls
Artist=Magnox
Album=Liberando El Dolor
Tracknumber=2
Year=2017
Genre=Thrash Metal



Register


Go to the top of the page
  Insert nick Quick quote
+Quote Post
 
Start new topic
Replies (1 - 2)
post May 20 2017, 09:07:53
Post #2

Dr.
**************
Group: Металариец
Posts: 5,369
Releases: 0
From: Primorye.ru
On Forums: 13 years 4 weeks
Thanks: 1126 time(s)
Russian Federation


Очередная порция бодрых каверов (IMG:style_emoticons/default/metaler.gif)
Go to the top of the page
  Insert nick Quick quote
+Quote Post
post Apr 3 2024, 01:12:16
Post #3

Литр
*
Group: Подсевший
Posts: 54
Releases: 7
On Forums: 15 years 3 months
Thanks: 81 time(s)
Russian Federation


Go to the top of the page
  Insert nick Quick quote
+Quote Post

Reply to this topicStart new topic
2 User(s) are reading this topic (2 Guests and 0 Anonymous Users)
0 Members:

 



- Lo-Fi Version Support form
Copyrights and abuse reports form
Time is now: 21st April 2024 - 06:53:10