Welcome Guest ( Log In | Register )

> Narthraal - Screaming From The Grave (2017), Old School Death Metal
post May 25 2017, 20:42:03
Post #1

Правь статус, ####!111
**************
Group: Металариец
Posts: 26,335
Releases: 18950
From: Г.Харьков
On Forums: 9 years 1 month
Thanks: 378200 time(s)
Unknown


(IMG:http://metalarea.org/images/audiocovers/2017_May/acov_tid289346_thumb.jpg)

*Artist: Narthraal
*Album: Screaming From The Grave
*Year: 2017
*Genre: Old School Death Metal
*Country: Iceland (IMG:http://metalarea.org/forum/style_images/flags/Iceland.png)
*Format: mp3@CBR320kbps
*Size: 96MB

Tracklist:
1. Death of the Undying 05:15
2. Screaming from the Grave 04:36
3. Million Graves to Fill 05:19
4. Worldwide Destruction 04:41
5. Envy 04:11
6. Descent into Darkness 04:24
7. Blood Path 03:24
8. Symbols of Hate 03:23
9. Feed the Pig 05:12
10. Dismember the Entombed 05:35
******************************
Total playing time: 46:00




Extended info
Tony Aguilar – Guitarra
Viktor Peñalver – Cantante, Bajo
Jonas Haux – Batería
Birkir Karanson – Guitarra


Technical info
(IMG:http://metalarea.org/images/spectrogram/2017_May/9755d9710ebd1b729d6abd516d6693c8.png)
Input File: 02 - Screaming from the Grave.mp3
Channels : 2
Sample Rate : 44100
Precision : 16-bit
Duration : 00:04:35.00 = 12127500 samples = 20625 CDDA sectors
File Size : 11.0M
Bit Rate : 321k
Sample Encoding: MPEG audio (layer I, II or III)
Comments :
Title=Screaming from the Grave
Artist=Narthraal



Register


Go to the top of the page
  Insert nick Quick quote
+Quote Post
 
Start new topic
Replies (1 - 2)
post May 26 2017, 02:43:12
Post #2

Правь статус, ####!111
**************
Group: Металариец
Posts: 26,335
Releases: 18950
From: Г.Харьков
On Forums: 9 years 1 month
Thanks: 378200 time(s)
Unknown


Register


Go to the top of the page
  Insert nick Quick quote
+Quote Post
post May 26 2017, 10:26:02
Post #3

Пять Литров
*****
Group: Металариец
Posts: 484
Releases: 0
From: германия
On Forums: 12 years 6 months
Thanks: 179 time(s)
Russian Federation


Шведятина Рулит
Go to the top of the page
  Insert nick Quick quote
+Quote Post

Reply to this topicStart new topic
1 User(s) are reading this topic (1 Guests and 0 Anonymous Users)
0 Members:

 



- Lo-Fi Version Support form
Copyrights and abuse reports form
Time is now: 22nd June 2021 - 10:50:43