Welcome Guest ( Log In | Register )

> Sweet Torment - Sweet Torment [demo] (2014), Heavy Metal/Punk
post Jun 10 2017, 21:40:19
Post #1

Правь статус, ####!616
**************
Group: Металариец
Posts: 7,188
Releases: 5626
From: 55°35’N 38°08’E
On Forums: 13 years 3 months
Thanks: 102777 time(s)
Unknown


(IMG:http://metalarea.org/images/audiocovers/2017_Jun/acov_tid290069_thumb.jpg)

*Artist: Sweet Torment
*Album: Sweet Torment [demo]
*Year: 2014
*Genre: Heavy Metal/Punk
*Country: Canada (IMG:http://metalarea.org/forum/style_images/flags/Canada.png)
*Format: mp3@CBR320kbps
*Size: 34MB

Tracklist:
1. Cry from the Catacombs 02:37
2. Seventh Trumpet (Third Woe) 03:08
3. Dream of Hell 01:40
4. Black Rites 03:36
******************************
Total playing time: 11:01



Extended info
Cassette, Hard and Heavy Records


Technical info
(IMG:http://metalarea.org/images/spectrogram/2017_Jun/3fa1a42ce47f81942a8efd04eeda8857.png)
Input File: 01 Cry From The Catacombs.mp3
Channels : 2
Sample Rate : 44100
Precision : 16-bit
Duration : 00:02:37.64 = 6951924 samples = 11823 CDDA sectors
File Size : 6.45M
Bit Rate : 327k
Sample Encoding: MPEG audio (layer I, II or III)
Comments :
Title=Cry From The Catacombs
Artist=Sweet Torment
Album=Demo
Tracknumber=1
Year=2014
Genre=Metal



Register


Go to the top of the page
  Insert nick Quick quote
+Quote Post
 
Start new topic
Replies (1 - 2)
post Jan 23 2021, 19:18:48
Post #2

aggresive exumator!
**********
Group: Металариец
Posts: 1,377
Releases: 0
On Forums: 10 years 3 weeks
Thanks: 46 time(s)
Unknown


reupload please
Go to the top of the page
  Insert nick Quick quote
+Quote Post
post Jan 24 2021, 07:35:56
Post #3

Правь статус, ####!111
Group Icon
Group: S-moderation team
Posts: 21,985
Releases: 1443
On Forums: 10 years 7 months
Thanks: 103541 time(s)
Unknown


Register


Go to the top of the page
  Insert nick Quick quote
+Quote Post

Reply to this topicStart new topic
1 User(s) are reading this topic (1 Guests and 0 Anonymous Users)
0 Members:

 



- Lo-Fi Version Support form
Copyrights and abuse reports form
Time is now: 20th October 2021 - 15:28:59