Welcome Guest ( Log In | Register )

Объявления

* gmail.com упорно продолжает считать почту с нас "unsolicited" и отбивает в том числе и письма активации, поэтому просьба использовать альтернативные почтовые ящики.
------------
* gmail.com continues reject all mail from us as "unsolicited" (activation mails too) therefore please use alternate mail servers.

> И неформату есть предел.

Рэп/хип-хоп/шансон/поп удаляются. Для них есть свои порталы.

> Nickelback - Feed The Machine (2017), Modern Hard Rock/Post-Grunge (D4)
post Jun 13 2017, 19:51:20
Post #1

Маньяк
**********
Group: Металариец
Posts: 1,230
Releases: 101
From: 56°24′00″ с. ш. 61°56′00″ в. д.
On Forums: 17 years 5 months
Thanks: 2274 time(s)
Russian Federation


(IMG:https://metalarea.org/images/audiocovers/2017_Jun/acov_tid290207_thumb.jpg)

*Artist: Nickelback
*Album: Feed The Machine
*Year: 2017
*Genre: Modern Hard Rock/Post-Grunge
*Country: Canada (IMG:https://metalarea.org/forum/style_images/flags/Canada.png)
*Format: mp3@CBR320kbps
*Size: 100MB

Tracklist:
01.Feed The Machine 5:03
02.Coin For The Ferryman 4:50
03.Song on Fire 3:51
04.Must Be Nice 3:43
05.After The Rain 3:35
06.For The River 3:29
07.Home 3:53
08.The Betrayal (Act III) 4:21
09.Silent Majority 3:52
10.Everytime We're Together 3:53
11.The Betrayal (Act I) 2:42
******************************
Total playing time: 43:12

Extended info


Technical info
(IMG:https://metalarea.org/images/spectrogram/2017_Jun/73d4c8235784a36e85f042d89a8cf519.png)
Input File: 01 Feed The Machine.mp3
Channels : 2
Sample Rate : 44100
Precision : 16-bit
Duration : 00:05:07.42 = 13557046 samples = 23056.2 CDDA sectors
File Size : 12.3M
Bit Rate : 320k
Sample Encoding: MPEG audio (layer I, II or III)
Comments :
Title=Feed The Machine
Artist=Nickelback
Album=Feed The Machine
Tracknumber=01
Year=2017
Genre=Rock



Register


Go to the top of the page
  Insert nick Quick quote
+Quote Post
2 Pages V  < 1 2  
Start new topic
Replies (30 - 32)
post Jun 18 2017, 14:45:23
Post #31

Три Литра
***
Group: Завсегдатай
Posts: 283
Releases: 0
From: Kiev
On Forums: 15 years 4 months
Thanks: 66 time(s)
Ukraine


ЦИТАТА(Penetralia @ Jun 17 2017, 10:57:50) *
Мумий Тролль появился 20 лет назад.

Точней Иллюша Джарвиса Кокера додумался тогда сдирать (IMG:style_emoticons/default/bye.gif)
Go to the top of the page
  Insert nick Quick quote
+Quote Post
post Sep 14 2023, 16:41:42
Post #32

Три Литра
***
Group: Завсегдатай
Posts: 200
Releases: 0
On Forums: 4 years 7 months
Thanks: 128 time(s)
Unknown


Register


Thanks:
Go to the top of the page
  Insert nick Quick quote
+Quote Post
post Sep 14 2023, 16:46:01
Post #33

Правь статус, ####!111
**************
Group: Металариец
Posts: 55,976
Releases: 1200
On Forums: 14 years 11 months
Thanks: 54814 time(s)
Russian Federation


ЦИТАТА(avkruchinin @ Jun 15 2017, 09:24:15) *
Чего молчим, круто же наверно, вон облога какая нажористая (IMG:style_emoticons/default/1488.gif)


(IMG:style_emoticons/default/15.gif)
Go to the top of the page
  Insert nick Quick quote
+Quote Post

2 Pages V  < 1 2
Reply to this topicStart new topic
1 User(s) are reading this topic (1 Guests and 0 Anonymous Users)
0 Members:

 



- Lo-Fi Version Support form
Copyrights and abuse reports form
Time is now: 26th May 2024 - 09:28:32