Welcome Guest ( Log In | Register )

> 

Здесь релизы с живыми прямыми ссылками на lossless

> Funeral Mourning - Left Seething Yet Unspoken & Veneration Of Broken Worlds [ep] (2017), Funeral Doom/Black Metal (D6)
post Jun 14 2017, 03:38:34
Post #1

Аннигилятор пивА
Group Icon
Group: V.I.P
Posts: 52,360
Releases: 16550
From: Koenigsberg - TILZIT
On Forums: 14 years 1 month
Thanks: 365608 time(s)
Russian Federation


(IMG:http://metalarea.org/images/audiocovers/2017_Jun/acov_tid290213_thumb.jpg)

*Artist: Funeral Mourning
*Album: Left Seething Yet Unspoken & Veneration Of Broken Worlds [ep]
*Year: 2017
*Genre: Funeral Doom/Black Metal
*Country: Australia (IMG:http://metalarea.org/forum/style_images/flags/Australia.png)
*Format: mp3@CBR320kbps
*Size: 55MB

Tracklist:
1. Left Seething yet Unspoken : Veneration of Broken Worlds 23:29
******************************
Total playing time: 23:29



Extended info
ФЛАК-РИП
Desolate - All instruments, Vocals (Ill Omen, Nazxul, Temple Nightside, ex-Austere, ex-Baratheon, ex-Perdition Oracle, ex-Pestilential Shadows, ex-Battalion)


Technical info
(IMG:http://metalarea.org/images/spectrogram/2017_Jun/a96e130d6627d38c97ad81fddd208993.png)
Input File: 01. Left Seething yet Unspoken & Veneration of Broken Worlds.mp3
Channels : 2
Sample Rate : 48000
Precision : 16-bit
Duration : 00:23:29.71 = 67666320 samples ~ 105729 CDDA sectors
File Size : 56.8M
Bit Rate : 322k
Sample Encoding: MPEG audio (layer I, II or III)
Comments :
Title=Left Seething Yet Unspoken : Veneration of Broken Worlds MLP
Artist=Funeral Mourning
Album=Left Seething Yet Unspoken & Veneration of Broken Worlds MLP
Tracknumber=1/1
Year=2017



Register


Go to the top of the page
  Insert nick Quick quote
+Quote Post
 
Start new topic
Replies (1 - 5)
post Jun 15 2017, 18:46:35
Post #2

Group: Подсевший
Posts: 14
Releases: 0
On Forums: 9 years 2 months
Thanks: 4 time(s)
Russian Federation


Хорошечно. А концовка прям вообще отличная.
(IMG:style_emoticons/default/20.gif)
Go to the top of the page
  Insert nick Quick quote
+Quote Post
post Jun 23 2017, 02:22:44
Post #3

Холодная черная птица
**
Group: Завсегдатай
Posts: 158
Releases: 0
From: Красноярск
On Forums: 11 years 7 months
Thanks: 218 time(s)
Russian Federation


Хм... А зря все молчат! Имхо этот трэк - лучшее, что выходило под вывеской Funeral Mourning! Только вот очень жаль, что, похоже, Desolate окончательно решил прикрыть этот проект...
Go to the top of the page
  Insert nick Quick quote
+Quote Post
post Jun 23 2017, 09:12:06
Post #4

Самый Тихий Час
**************
Group: Металариец
Posts: 5,974
Releases: 2
On Forums: 10 years 7 months
Thanks: 2768 time(s)
Unknown


ЦИТАТА(Peikko @ 23rd June 2017 - 04:22:44) *
Desolate окончательно решил прикрыть этот проект...

(IMG:style_emoticons/default/6.gif)

А трэк - да, мастерский, выше всяких похвал.
Go to the top of the page
  Insert nick Quick quote
+Quote Post
post Aug 19 2019, 12:35:33
Post #5

Шесть Литров
******
Group: Металариец
Posts: 656
Releases: 0
From: Hell
On Forums: 4 years 11 months
Thanks: 21 time(s)
Afghanistan


Please reupload!
Go to the top of the page
  Insert nick Quick quote
+Quote Post
post Aug 20 2019, 16:57:54
Post #6

Правь статус, ####!111
**************
Group: Металариец
Posts: 46,772
Releases: 731
On Forums: 11 years 1 month
Thanks: 39426 time(s)
Russian Federation


FLAC

Register


Go to the top of the page
  Insert nick Quick quote
+Quote Post

Reply to this topicStart new topic
1 User(s) are reading this topic (1 Guests and 0 Anonymous Users)
0 Members:

 



- Lo-Fi Version Support form
Copyrights and abuse reports form
Time is now: 10th July 2020 - 10:12:19