Welcome Guest ( Log In | Register )

> Expendiency - Sadistic Murder (2017), Brutal Death Metal
post Jun 20 2017, 14:19:43
Post #1

Serial Uploader
Group Icon
Group: V.I.P
Posts: 38,480
Releases: 36627
From: Lithuania
On Forums: 13 years 11 months
Thanks: 453258 time(s)
Lithuania


(IMG:http://metalarea.org/images/audiocovers/2017_Jun/acov_tid290472_thumb.jpg)

*Artist: Expendiency
*Album: Sadistic Murder
*Year: 2017
*Genre: Brutal Death Metal
*Country: Indonesia (IMG:http://metalarea.org/forum/style_images/flags/Indonesia.png)
*Format: mp3@VBR300kbps
*Size: 76MB

Tracklist:
01. Massacre 03:30
02. Erection Mutilated 03:12
03. Butcher Knife 03:09
04. Sickness Torture 03:50
05. Sadistic Murder 03:59
06. Decapitated Madness 04:21
07. Cannibalistic Consumption 03:17
08. Rape Victims Mutilation 04:34
09. Killing And Eating Cunt 02:00
10. The End Of Savagery 02:12
******************************
Total playing time: 34:04

(IMG:http://metalarea.org/images/myspace.png)



Extended info
Scene CD-rip


Technical info
(IMG:http://metalarea.org/images/spectrogram/2017_Jun/ed1eb3648d427d828ab77851fccf59f3.png)
Input File: 02-expendiency-erection_mutilated.mp3
Channels : 2
Sample Rate : 44100
Precision : 16-bit
Duration : 00:03:14.90 = 8595046 samples = 14617.4 CDDA sectors
File Size : 7.43M
Bit Rate : 305k
Sample Encoding: MPEG audio (layer I, II or III)
Comments :
Title=Erection Mutilated
Artist=Expendiency
Album=Sadistic Murder
Tracknumber=2/10
Year=2017
Genre=Death Metal
Discnumber=1/1



Register


Go to the top of the page
  Insert nick Quick quote
+Quote Post
 
Start new topic
Replies (1 - 3)
post Jun 21 2017, 07:27:08
Post #2

hearer & reader
**************
Group: Металариец
Posts: 10,281
Releases: 211
From: Moscow
On Forums: 14 years 8 months
Thanks: 12391 time(s)
Russian Federation



нудятина
Go to the top of the page
  Insert nick Quick quote
+Quote Post
post Aug 15 2018, 12:58:48
Post #3

Правь статус, ####!111
**************
Group: Металариец
Posts: 2,099
Releases: 263
From: Omsk, Siberia
On Forums: 13 years 2 months
Thanks: 5184 time(s)
Russian Federation


VBR V0 (scene):
Register

320 kbps:
Register


Thanks:
Go to the top of the page
  Insert nick Quick quote
+Quote Post
post Aug 19 2020, 09:40:58
Post #4

Правь статус, ####!111
**************
Group: Металариец
Posts: 5,450
Releases: 574
From: MoscoW
On Forums: 15 years 5 months
Thanks: 8814 time(s)
Russian Federation


Go to the top of the page
  Insert nick Quick quote
+Quote Post

Reply to this topicStart new topic
1 User(s) are reading this topic (1 Guests and 0 Anonymous Users)
0 Members:

 



- Lo-Fi Version Support form
Copyrights and abuse reports form
Time is now: 25th May 2022 - 20:46:58