Welcome Guest ( Log In | Register )

> Tenebris - Luctus (2017), Atmospheric Black/Doom Metal (D)
post Jun 22 2017, 11:58:39
Post #1

Serial Uploader
Group Icon
Group: V.I.P
Posts: 37,532
Releases: 35706
From: Lithuania
On Forums: 12 years 5 months
Thanks: 430322 time(s)
Lithuania


(IMG:http://metalarea.org/images/audiocovers/2017_Jun/acov_tid290531_thumb.jpg)

*Artist: Tenebris
*Album: Luctus
*Year: 2017
*Genre: Atmospheric Black/Doom Metal
*Country: Australia (IMG:http://metalarea.org/forum/style_images/flags/Australia.png)
*Format: mp3@CBR320kbps
*Size: 144MB

Tracklist:
01. Luctus - Pt I 21:46
02. Luctus - Pt Ii 19:07
03. Luctus - Pt Iii 22:12
******************************
Total playing time: 1:03:05



Technical info
(IMG:http://metalarea.org/images/spectrogram/2017_Jun/93542ef14d4c634167b54e59469b981c.png)
Input File: 02. LUCTUS - PT II.mp3
Channels : 2
Sample Rate : 44100
Precision : 16-bit
Duration : 00:19:07.67 = 50612071 samples = 86075 CDDA sectors
File Size : 46.0M
Bit Rate : 321k
Sample Encoding: MPEG audio (layer I, II or III)
Comments :
Title=LUCTUS - PT II
Artist=Tenebris
Album=LUCTUS
Tracknumber=2
Year=2017



Register


Go to the top of the page
  Insert nick Quick quote
+Quote Post
 
Start new topic
Replies (1 - 6)
post Jun 22 2017, 16:30:40
Post #2

Sempiternus Necromant
**********
Group: Металариец
Posts: 1,045
Releases: 4
From: Сибирь - Алтайский Край
On Forums: 10 years 11 months
Thanks: 358 time(s)
Russian Federation


Погружение в гармонию тьмы. (IMG:style_emoticons/default/true_black.gif)


Thanks:
(1) Noxius,
Go to the top of the page
  Insert nick Quick quote
+Quote Post
post Jun 22 2017, 22:58:36
Post #3

Шесть Литров
******
Group: Металариец
Posts: 551
Releases: 0
On Forums: 11 years 6 months
Thanks: 194 time(s)
Belarus


Чисто ради эксперимента,в очередной раз,заглянул в топик,где наряду с Doom Metal,присутствует Black Metal.И в очередной раз убеждаюсь,что это безумное направление псевдомузыки,превращает Doom Metal в содержимое кишечника.
Go to the top of the page
  Insert nick Quick quote
+Quote Post
post Jul 7 2017, 06:20:38
Post #4

...Only Death Is Real...
**************
Group: Металариец
Posts: 2,909
Releases: 19
On Forums: 10 years 4 months
Thanks: 1924 time(s)
Antarctica


Мрачный инструментал. (IMG:style_emoticons/default/true_black.gif)
Go to the top of the page
  Insert nick Quick quote
+Quote Post
post Jul 7 2017, 06:47:40
Post #5

кручу наждак
**************
Group: Металариец
Posts: 4,653
Releases: 103
From: Самара
On Forums: 10 years 6 months
Thanks: 3729 time(s)
Russian Federation


ЦИТАТА
*Артист: Tenebris

Тут по ссылке другой Тенебрис вылазит, который польский.
Go to the top of the page
  Insert nick Quick quote
+Quote Post
post Jul 7 2017, 09:08:23
Post #6

Маньяк
**********
Group: Металариец
Posts: 1,091
Releases: 0
On Forums: 12 years 1 week
Thanks: 433 time(s)
United Kingdom


лучше бы поляки выдали чё нибудь
Go to the top of the page
  Insert nick Quick quote
+Quote Post
post Jan 21 2018, 15:58:11
Post #7

Пять Литров
*****
Group: Металариец
Posts: 451
Releases: 0
On Forums: 4 years 4 months
Thanks: 33 time(s)
Unknown


Not good. (IMG:style_emoticons/default/14.gif)
Go to the top of the page
  Insert nick Quick quote
+Quote Post

Reply to this topicStart new topic
1 User(s) are reading this topic (1 Guests and 0 Anonymous Users)
0 Members:

 



- Lo-Fi Version Support form
Copyrights and abuse reports form
Time is now: 4th December 2020 - 10:01:45