Welcome Guest ( Log In | Register )

Объявления

* gmail.com упорно продолжает считать почту с нас "unsolicited" и отбивает в том числе и письма активации, поэтому просьба использовать альтернативные почтовые ящики.
------------
* gmail.com continues reject all mail from us as "unsolicited" (activation mails too) therefore please use alternate mail servers.
> Necro Cannibal Ass Grinder - Birth Of An Ass Grinder [demo] (2017), Brutal Death Metal/Goregrind
post Jun 27 2017, 12:29:20
Post #1

Serial Uploader
Group Icon
Group: V.I.P
Posts: 42,975
Releases: 41034
From: Lithuania
On Forums: 16 years 1 month
Thanks: 527373 time(s)
Lithuania


(IMG:https://metalarea.org/images/audiocovers/2017_Jun/acov_tid290806_thumb.jpg)

*Artist: Necro Cannibal Ass Grinder
*Album: Birth Of An Ass Grinder [demo]
*Year: 2017
*Genre: Brutal Death Metal/Goregrind
*Country: United States (IMG:https://metalarea.org/forum/style_images/flags/United%20States.png)
*Format: mp3@CBR320kbps
*Size: 18MB

Tracklist:
01. Erection In The Wrong Direction (Feat. Bill Nye Da Nazi Spy) 01:35
02. Sandpaper Flamingo 02:02
03. Incest Dungeon 01:55
******************************
Total playing time: 5:32




Technical info
(IMG:https://metalarea.org/images/spectrogram/2017_Jun/757fd08dace25e8feac240fcd41043fb.png)
Input File: 02. Sandpaper Flamingo.mp3
Channels : 2
Sample Rate : 44100
Precision : 16-bit
Duration : 00:02:02.58 = 5405646 samples = 9193.28 CDDA sectors
File Size : 5.01M
Bit Rate : 327k
Sample Encoding: MPEG audio (layer I, II or III)
Comments :
Title=Sandpaper Flamingo
Artist=Necro Cannibal Ass Grinder
Album=Birth of an Ass Grinder
Tracknumber=2
Year=2017



Register


Go to the top of the page
  Insert nick Quick quote
+Quote Post
 
Start new topic
Replies (1 - 1)
post Oct 6 2017, 02:14:39
Post #2

Литр
*
Group: Подсевший
Posts: 57
Releases: 0
From: Unknown
On Forums: 6 years 10 months
Thanks: 2 time(s)
United States


It's gone, anyone got a reupload?
Go to the top of the page
  Insert nick Quick quote
+Quote Post

Reply to this topicStart new topic
1 User(s) are reading this topic (1 Guests and 0 Anonymous Users)
0 Members:

 



- Lo-Fi Version Support form
Copyrights and abuse reports form
Time is now: 19th July 2024 - 12:22:15