Welcome Guest ( Log In | Register )

> И неформату есть предел.

Рэп/хип-хоп/шансон/поп удаляются. Для них есть свои порталы.

> Hidden Orchestra - Dawn Chorus (2017), Atmospheric/Cinematic Jazz
post Jun 27 2017, 18:38:02
Post #1

Три Литра
***
Group: Завсегдатай
Posts: 237
Releases: 2
From: минск
On Forums: 12 years 10 months
Thanks: 168 time(s)
Belarus


(IMG:http://metalarea.org/images/audiocovers/2017_Jun/acov_tid290823_thumb.jpg)

*Artist: Hidden Orchestra
*Album: Dawn Chorus
*Year: 2017
*Genre: Atmospheric/Cinematic Jazz
*Country: United Kingdom (IMG:http://metalarea.org/forum/style_images/flags/United%20Kingdom.png)
*Format: mp3@CBR320kbps
*Size: 135MB

Tracklist:
01. First Light (03:39)
02. Western Isles (06:13)
03. Still (06:55)
04. The Lizard (05:51)
05. Long Orchard (04:57)
06. Alyth (06:32)
07. Wingbeats (11:59)
08. Serpentine (01:16)
09. Stone (06:08)
10. East London Street (11:13)
******************************
Total playing time: 1:04:43

Extended info
Hidden Orchestra is the solo studio project of multi-instrumentalist composer/producer Joe Acheson, whose albums and live shows feature a wide variety of guest musicians from all kinds of musical backgrounds.


Technical info
(IMG:http://metalarea.org/images/spectrogram/2017_Jun/b460ba2a4e6d47c111b3e5d4a807538c.png)
Input File: 01 - First Light.mp3
Channels : 2
Sample Rate : 44100
Precision : 16-bit
Duration : 00:03:39.74 = 9690490 samples = 16480.4 CDDA sectors
File Size : 8.89M
Bit Rate : 324k
Sample Encoding: MPEG audio (layer I, II or III)
Comments :
Title=First Light
Artist=Hidden Orchestra
Album=Dawn Chorus
Tracknumber=1/10
Year=2017
Genre=52



Register


Thanks:
Go to the top of the page
  Insert nick Quick quote
+Quote Post
 
Start new topic
Replies (1 - 1)
post Jun 28 2017, 04:53:25
Post #2

Group: Подсевший
Posts: 42
Releases: 0
From: Russia
On Forums: 14 years 2 weeks
Thanks: 24 time(s)
Russian Federation


Полный альбом на youtube
Register


Thanks:
Go to the top of the page
  Insert nick Quick quote
+Quote Post

Reply to this topicStart new topic
1 User(s) are reading this topic (1 Guests and 0 Anonymous Users)
0 Members:

 



- Lo-Fi Version Support form
Copyrights and abuse reports form
Time is now: 25th September 2022 - 09:24:08