Welcome Guest ( Log In | Register )

> Pale Existence - Hymns Of Grief [demo] (1995), Death/Doom Metal
post Jun 28 2017, 02:35:24
Post #1

Group: Подсевший
Posts: 20
Releases: 6
From: Argentina
On Forums: 12 years 7 months
Thanks: 68 time(s)
Argentina


(IMG:http://metalarea.org/images/audiocovers/nocover.gif)

*Artist: Pale Existence
*Album: Hymns Of Grief [demo]
*Year: 1995
*Genre: Death/Doom Metal
*Country: United States (IMG:http://metalarea.org/forum/style_images/flags/United%20States.png)
*Format: mp3@CBR320kbps
*Size: 58MB

Tracklist:
1.A Distant Forest 03:25
2.Lost Title 05:00
3.Shadows of Obscurity 05:18
4.Hyms of Grief 03:40
5.Black Metal Song 01:50
6.Eviscerated 06:26
******************************
Total playing time: 25:39

Extended info
FLAC can be bought straight from the band's bassist bandcamp for 1USD here:


Technical info
(IMG:http://metalarea.org/images/spectrogram/2017_Jun/22c9b1fbb37ddd08e9e3a40c6526410c.png)
Input File: 05 Black Metal Song.mp3
Channels : 2
Sample Rate : 48000
Precision : 16-bit
Duration : 00:01:50.11 = 5285520 samples ~ 8258.62 CDDA sectors
File Size : 4.45M
Bit Rate : 323k
Sample Encoding: MPEG audio (layer I, II or III)
Comments :
Title=Black Metal Song
Artist=Pale Existence
Album=Hyms of Grief (1995)
Tracknumber=5
Year=2016
Genre=Death/Doom Metal



Register


Go to the top of the page
  Insert nick Quick quote
+Quote Post
 
Start new topic
Replies (1 - 3)
post Jul 29 2017, 12:16:24
Post #2

Подвал
**************
Group: Металариец
Posts: 18,087
Releases: 10359
From: Far East (Khabarovsk)
On Forums: 13 years 10 months
Thanks: 120391 time(s)
Russian Federation


А вот этого демо на архивах пока нет... Спасибо за находку.
Go to the top of the page
  Insert nick Quick quote
+Quote Post
post Nov 21 2022, 18:20:05
Post #3

Group: Подсевший
Posts: 12
Releases: 0
On Forums: 9 months 2 hours
Thanks: 0 time(s)
Unknown


please re -upload.... (IMG:style_emoticons/default/pray.gif) (IMG:style_emoticons/default/pray.gif) (IMG:style_emoticons/default/pray.gif)
Go to the top of the page
  Insert nick Quick quote
+Quote Post
post Nov 24 2022, 13:31:53
Post #4

Подвал
**************
Group: Металариец
Posts: 18,087
Releases: 10359
From: Far East (Khabarovsk)
On Forums: 13 years 10 months
Thanks: 120391 time(s)
Russian Federation


New link:
Register


Go to the top of the page
  Insert nick Quick quote
+Quote Post

Reply to this topicStart new topic
2 User(s) are reading this topic (2 Guests and 0 Anonymous Users)
0 Members:

 



- Lo-Fi Version Support form
Copyrights and abuse reports form
Time is now: 2nd December 2022 - 11:30:37