Welcome Guest ( Log In | Register )

> Pale Existence - Demo [demo] (1994), Death/Doom Metal
post Jun 28 2017, 02:37:57
Post #1

Group: Подсевший
Posts: 20
Releases: 6
From: Argentina
On Forums: 12 years 7 months
Thanks: 68 time(s)
Argentina


(IMG:http://metalarea.org/images/audiocovers/nocover.gif)

*Artist: Pale Existence
*Album: Demo [demo]
*Year: 1994
*Genre: Death/Doom Metal
*Country: United States (IMG:http://metalarea.org/forum/style_images/flags/United%20States.png)
*Format: mp3@CBR320kbps
*Size: 48MB

Tracklist:
1.Dismal Paths 05:08
2.Dark Tranquility 05:43
3.Sickness 00:49
4.Impure 03:13
5.Subconscious Weeping 04:26
6.Visions of the Disconsolate 00:58
******************************
Total playing time: 20:17

Extended info
FLAC can be bought straight from the band's bassist bandcamp for 1USD here:


Technical info
(IMG:http://metalarea.org/images/spectrogram/2017_Jun/647ccff32106de4e52d17d067e9ded7f.png)
Input File: 03 Sickness.mp3
Channels : 2
Sample Rate : 44100
Precision : 16-bit
Duration : 00:00:49.59 = 2186831 samples = 3719.1 CDDA sectors
File Size : 2.08M
Bit Rate : 336k
Sample Encoding: MPEG audio (layer I, II or III)
Comments :
Title=Sickness
Artist=Pale Existence
Album=1st Demo (1994 cassette)
Tracknumber=3
Year=2017
Genre=Death/Doom Metal



Register


Go to the top of the page
  Insert nick Quick quote
+Quote Post
 
Start new topic
Replies (1 - 2)
post Jul 29 2017, 12:13:47
Post #2

Подвал
**************
Group: Металариец
Posts: 18,087
Releases: 10359
From: Far East (Khabarovsk)
On Forums: 13 years 10 months
Thanks: 120391 time(s)
Russian Federation


На архивах это демо датируется 1995 годом и называется "Dark Tranquility"...
Go to the top of the page
  Insert nick Quick quote
+Quote Post
post Nov 24 2022, 13:29:02
Post #3

Подвал
**************
Group: Металариец
Posts: 18,087
Releases: 10359
From: Far East (Khabarovsk)
On Forums: 13 years 10 months
Thanks: 120391 time(s)
Russian Federation


New link:
Register


Go to the top of the page
  Insert nick Quick quote
+Quote Post

Reply to this topicStart new topic
2 User(s) are reading this topic (2 Guests and 0 Anonymous Users)
0 Members:

 



- Lo-Fi Version Support form
Copyrights and abuse reports form
Time is now: 2nd December 2022 - 11:40:54