Welcome Guest ( Log In | Register )

> Cellar Darling - This Is The Sound (2017), Melodic Heavy Metal
post Jun 29 2017, 13:13:36
Post #1

Serial Uploader
Group Icon
Group: V.I.P
Posts: 42,408
Releases: 40477
From: Lithuania
On Forums: 15 years 10 months
Thanks: 517039 time(s)
Lithuania


(IMG:http://metalarea.org/images/audiocovers/2017_Jun/acov_tid290878_thumb.jpg)

*Artist: Cellar Darling
*Album: This Is The Sound
*Year: 2017
*Genre: Melodic Heavy Metal
*Country: Switzerland (IMG:http://metalarea.org/forum/style_images/flags/Switzerland.png)
*Format: mp3@CBR320kbps
*Size: 138MB

Tracklist:
01. Avalanche 04:08
02. Black Moon 04:12
03. Challenge 03:38
04. Hullaballoo 03:35
05. Six Days 05:49
06. The Hermit 03:15
07. Water 01:54
08. Fire, Wind & Eartt 04:41
09. Rebels 05:34
10. Under The Oak Tree... 04:13
11. ...High Above These Crowns 02:45
12. Starcrusher 03:20
13. Hedonia 07:28
14. Redemption 05:19
******************************
Total playing time: 59:51


(IMG:http://metalarea.org/images/youtube.png)

Technical info
(IMG:http://metalarea.org/images/spectrogram/2017_Jun/6d94c243d4d4534d6488735927209bb1.png)
Input File: 02. Black Moon.mp3
Channels : 2
Sample Rate : 44100
Precision : 16-bit
Duration : 00:04:12.74 = 11145614 samples = 18955.1 CDDA sectors
File Size : 10.2M
Bit Rate : 323k
Sample Encoding: MPEG audio (layer I, II or III)
Comments :
Title=Black Moon
Artist=Cellar Darling
Album=This Is the Sound
Tracknumber=2/14
Year=2017
Genre=17
Discnumber=1/1



Register


Go to the top of the page
  Insert nick Quick quote
+Quote Post
 
Start new topic
Replies (1 - 22)
post Jun 29 2017, 15:26:13
Post #2

Волк без яблока
**************
Group: Металариец
Posts: 13,633
Releases: 107
From: Санкт-Петербург
On Forums: 17 years 6 months
Thanks: 16060 time(s)
Russian Federation


ЦИТАТА(necroscum @ 29th June 2017 - 15:13:36) *
Medieval Folk Metal

Шыто.


Go to the top of the page
  Insert nick Quick quote
+Quote Post
post Jun 29 2017, 15:31:40
Post #3

Аннигилятор пивА
Group Icon
Group: V.I.P
Posts: 52,552
Releases: 16538
From: Koenigsberg - TILZIT
On Forums: 17 years 10 months
Thanks: 371813 time(s)
Russian Federation


по моему готик метал/рок (IMG:style_emoticons/default/1488.gif) от фолка у вокалистки какая-то шарманка в руках, она иногда ручку крутит
Go to the top of the page
  Insert nick Quick quote
+Quote Post
post Jun 29 2017, 16:50:02
Post #4

Шесть Литров
******
Group: Металариец
Posts: 502
Releases: 12
On Forums: 11 years 10 months
Thanks: 422 time(s)
Russian Federation


Очередные Within Temptation. Мимо...
Go to the top of the page
  Insert nick Quick quote
+Quote Post
post Jun 29 2017, 18:21:16
Post #5

к приему виски готов
*********
Group: Металариец
Posts: 957
Releases: 3
From: Украина
On Forums: 15 years 1 month
Thanks: 565 time(s)
Ukraine


это те кто с элювейти свалили? что бы такую х (IMG:style_emoticons/default/12.gif) ю творить. пипец (IMG:style_emoticons/default/normal_Homerdisgust3.png)


Thanks:
Go to the top of the page
  Insert nick Quick quote
+Quote Post
post Jun 29 2017, 19:12:37
Post #6

Это просто место… где все подошло к концу.
**************
Group: Металариец
Posts: 6,891
Releases: 0
From: Страны Мамонтов
On Forums: 17 years 2 months
Thanks: 2891 time(s)
Antarctica


Превьюшный трэк ничётакой. Ннадо послушать больше
Go to the top of the page
  Insert nick Quick quote
+Quote Post
post Jun 29 2017, 22:05:03
Post #7

Пять Литров
*****
Group: Металариец
Posts: 455
Releases: 1
From: Первопрестольная!!
On Forums: 18 years 6 months
Thanks: 124 time(s)
Russian Federation


А это не похудевшая ли баба из елювиети?


Thanks:
(1) Ghostb,
Go to the top of the page
  Insert nick Quick quote
+Quote Post
post Jun 29 2017, 22:07:17
Post #8

Попсовик от брутала
**************
Group: Металариец
Posts: 8,021
Releases: 82
From: Минск
On Forums: 15 years 4 months
Thanks: 7769 time(s)
Belarus


ЦИТАТА(скептик @ 29th June 2017 - 20:21:16) *
это те кто с элювейти свалили? что бы такую х ю творить. пипец

а разве овулейти это не оно самое?


Thanks:
(1) Ghostb,
Go to the top of the page
  Insert nick Quick quote
+Quote Post
post Jun 30 2017, 09:28:19
Post #9

Волк без яблока
**************
Group: Металариец
Posts: 13,633
Releases: 107
From: Санкт-Петербург
On Forums: 17 years 6 months
Thanks: 16060 time(s)
Russian Federation


ЦИТАТА(Tular @ 30th June 2017 - 00:07:17) *
а разве овулейти это не оно самое?

Нет.
Go to the top of the page
  Insert nick Quick quote
+Quote Post
post Jun 30 2017, 09:50:17
Post #10

к приему виски готов
*********
Group: Металариец
Posts: 957
Releases: 3
From: Украина
On Forums: 15 years 1 month
Thanks: 565 time(s)
Ukraine


ЦИТАТА(Tular @ Jun 30 2017, 00:07:17) *
а разве овулейти это не оно самое?

(IMG:style_emoticons/default/poke_g.gif) у елювейти были как минимум 2 шикарных альбома и 2 добротных.
Go to the top of the page
  Insert nick Quick quote
+Quote Post
post Jul 2 2017, 09:33:21
Post #11

South Of Heaven /адепт ВУДУ
**************
Group: Металариец
Posts: 13,960
Releases: 9
On Forums: 14 years 2 weeks
Thanks: 5685 time(s)
Unknown


ЦИТАТА(aesteticvice @ Jun 29 2017, 17:31:40) *
у вокалистки какая-то шарманка в руках, она иногда ручку крутит

Это не шарманка, это динамо-машина (IMG:style_emoticons/default/crazy.gif)


Thanks:
Go to the top of the page
  Insert nick Quick quote
+Quote Post
post Jul 3 2017, 08:10:03
Post #12

V.S.O.P.
Group Icon
Group: V.I.P
Posts: 6,918
Releases: 77
From: Kænugarður
On Forums: 17 years 8 months
Thanks: 10749 time(s)
Ukraine


Мне почему-то всё время хочется назвать их Cedar Darling. Но не суть, материал невзрачный и слишком попсовый, дабы слушать более чем единожды. Здесь нужны хиты, хуковая подача и яркие мелодии, но не завезли. Приятно, не более. И я бы в неформат снёс, да.
Go to the top of the page
  Insert nick Quick quote
+Quote Post
post Jul 12 2017, 17:08:45
Post #13

Три Литра
***
Group: Завсегдатай
Posts: 251
Releases: 0
From: Odessa
On Forums: 16 years 3 months
Thanks: 55 time(s)
Ukraine


Альбом понравился, к металу это с натяжкой относится, слишком легковесно, но материал приятный.

ЦИТАТА(avkruchinin @ Jul 2 2017, 11:33:21) *
Это не шарманка, это динамо-машина (IMG:style_emoticons/default/crazy.gif)

Это колесная лира (Hurdy gurdy).


Thanks:
(1) Ghostb,
Go to the top of the page
  Insert nick Quick quote
+Quote Post
post Jul 12 2017, 17:28:59
Post #14

Попсовик от брутала
**************
Group: Металариец
Posts: 8,021
Releases: 82
From: Минск
On Forums: 15 years 4 months
Thanks: 7769 time(s)
Belarus


Black Moon очень хорошая песня, можно даже несколько раз послушать. Остальное не можно.
Go to the top of the page
  Insert nick Quick quote
+Quote Post
post Jul 26 2017, 21:12:13
Post #15

Правь статус, ####!111
**************
Group: Металариец
Posts: 2,514
Releases: 6
From: Kyiv
On Forums: 16 years 5 months
Thanks: 326 time(s)
Ukraine


Сладкоголосая альтернативщина с лирой.
Go to the top of the page
  Insert nick Quick quote
+Quote Post
post Aug 4 2017, 16:00:14
Post #16

Тридцать три года на борту "тяжёлого" крейсера
**************
Group: Металариец
Posts: 3,126
Releases: 0
From: Питер
On Forums: 16 years 10 months
Thanks: 995 time(s)
Russian Federation


Какой хэви - альта слегка приготиченная, примерно то, что делают на последних паре альбомов Lacuna Coil. Они, к слову на пару и кататься в туре настроились
Мимо, в общем


Thanks:
(1) MeatWolf,
Go to the top of the page
  Insert nick Quick quote
+Quote Post
post Aug 4 2017, 16:56:15
Post #17

Кожаный ублюдок
**************
Group: Металариец
Posts: 3,558
Releases: 6
From: Алчевск (early) Некросибирск (now)
On Forums: 14 years 11 months
Thanks: 2529 time(s)
Russian Federation


ЦИТАТА(avkruchinin @ Jul 2 2017, 11:33:21) *
Это не шарманка, это динамо-машина (IMG:style_emoticons/default/crazy.gif)

Она питает электрогитару соседа по группе
Go to the top of the page
  Insert nick Quick quote
+Quote Post
post Aug 23 2017, 19:56:53
Post #18

Group: Подсевший
Posts: 15
Releases: 1
From: Нюрнберг
On Forums: 18 years 4 months
Thanks: 34 time(s)
Ukraine


Услышал их на фестивале прошлую пятницу. По превью ничего не обещало чего-то особенного и я пришел на минут 10-15 позже начала.
А оказалось вживую очень хорошо. Вот теперь слушаю уже в записи.
Да, и все-таки эта шарманка действительно издает звук - это было иногда слышно (IMG:style_emoticons/default/smile1.gif)

Кстати в тот же день выступали и Элувейти - они как всегда не удивили, ничего нового хорошего что-то у них не получается.


Thanks:
(1) Ghostb,
Go to the top of the page
  Insert nick Quick quote
+Quote Post
post Nov 8 2017, 11:32:19
Post #19

local
**************
Group: Металариец
Posts: 3,014
Releases: 268
On Forums: 17 years 4 months
Thanks: 7950 time(s)
Unknown


Оказывается, там есть ещё 3 бонус-трека:

15. The Cold Song 4:06
16. Mad World (Tears For Fears Cover) 3:23
17. The Prophet's Song (Queen Cover) 7:25


Залил полную версию
Register


Thanks:
(1) metala,
Go to the top of the page
  Insert nick Quick quote
+Quote Post
post Mar 23 2019, 21:02:16
Post #20

Group: Дух
Posts: 8
Releases: 0
From: Turkey
On Forums: 15 years 6 months
Thanks: 2 time(s)
Turkey


QUOTE(necroscum @ Jun 29 2017, 15:13:36) *
http://metalarea.org/images/audiocovers/20...90878_thumb.jpg

*Artist: Cellar Darling
*Album: This Is The Sound
*Year: 2017
*Genre: Melodic Heavy Metal
*Country: Switzerland http://metalarea.org/forum/style_images/fl...Switzerland.png
*Format: mp3@CBR320kbps
*Size: 138MB

Tracklist:
01. Avalanche 04:08
02. Black Moon 04:12
03. Challenge 03:38
04. Hullaballoo 03:35
05. Six Days 05:49
06. The Hermit 03:15
07. Water 01:54
08. Fire, Wind & Eartt 04:41
09. Rebels 05:34
10. Under The Oak Tree... 04:13
11. ...High Above These Crowns 02:45
12. Starcrusher 03:20
13. Hedonia 07:28
14. Redemption 05:19
******************************
Total playing time: 59:51


http://metalarea.org/images/youtube.png

Technical info
http://metalarea.org/images/spectrogram/20...35927209bb1.png
Input File: 02. Black Moon.mp3
Channels : 2
Sample Rate : 44100
Precision : 16-bit
Duration : 00:04:12.74 = 11145614 samples = 18955.1 CDDA sectors
File Size : 10.2M
Bit Rate : 323k
Sample Encoding: MPEG audio (layer I, II or III)
Comments :
Title=Black Moon
Artist=Cellar Darling
Album=This Is the Sound
Tracknumber=2/14
Year=2017
Genre=17
Discnumber=1/1




Could you please re-upload this ? Both links are dead!


Thanks:
Go to the top of the page
  Insert nick Quick quote
+Quote Post
post Mar 23 2019, 23:58:52
Post #21

PREDATель
**************
Group: Металариец
Posts: 3,611
Releases: 8
From: из Кёнига
On Forums: 16 years 4 months
Thanks: 2529 time(s)
Russian Federation




Чувак мегавиртуоз! Смотреть до конца кто не видел. Вся круть во второй половине Марлезонского Балета. Один за весь Орфанед Лэнд сыграл) И даже прог в конце какой-то.)

и свежачка, придумлённого

Даже на виниле есть.

(IMG:https://i109.fastpic.ru/big/2019/0324/19/a520087a157d78fb50122e7ce1e0fc19.jpg)
Go to the top of the page
  Insert nick Quick quote
+Quote Post
post Mar 25 2019, 11:40:45
Post #22

https://rateyourmusic.com/~Ghostb
**************
Group: Металариец
Posts: 2,777
Releases: 0
From: Харьков
On Forums: 14 years 6 months
Thanks: 1382 time(s)
Ukraine


Я таки послушал. Тоже хороший альбом, по стилю скорее альтернатива, но при этом не самая тривиальная. Удачных треков достаточно и вокал отличный. В общем, скорее зачет, хотя следующий полноформат гораздо интереснее.
P.S. А вот Queen перепевать зря взялись (я про бонус-треки).
Go to the top of the page
  Insert nick Quick quote
+Quote Post
post Apr 5 2019, 22:52:15
Post #23

South Of Heaven /адепт ВУДУ
**************
Group: Металариец
Posts: 13,960
Releases: 9
On Forums: 14 years 2 weeks
Thanks: 5685 time(s)
Unknown


Спасибо BULDOZER (IMG:style_emoticons/default/9.gif)

Register


Go to the top of the page
  Insert nick Quick quote
+Quote Post

Reply to this topicStart new topic
1 User(s) are reading this topic (1 Guests and 0 Anonymous Users)
0 Members:

 



- Lo-Fi Version Support form
Copyrights and abuse reports form
Time is now: 19th April 2024 - 22:07:09