Welcome Guest ( Log In | Register )

Объявления

* gmail.com упорно продолжает считать почту с нас "unsolicited" и отбивает в том числе и письма активации, поэтому просьба использовать альтернативные почтовые ящики.
------------
* gmail.com continues reject all mail from us as "unsolicited" (activation mails too) therefore please use alternate mail servers.
> Stereo Nasty - Twisting The Blade (2017), Heavy Metal
post Jul 2 2017, 00:58:37
Post #1

No More Tears
**************
Group: Металариец
Posts: 5,014
Releases: 114
From: Тбилиси, Грузия
On Forums: 17 years 10 months
Thanks: 2451 time(s)
Georgia


(IMG:https://metalarea.org/images/audiocovers/2017_Jul/acov_tid290990_thumb.jpg)

*Artist: Stereo Nasty
*Album: Twisting The Blade
*Year: 2017
*Genre: Heavy Metal
*Country: Ireland (IMG:https://metalarea.org/forum/style_images/flags/Ireland.png)
*Format: mp3@CBR320kbps
*Size: 84MB

Tracklist:
1. Kill or Be Killed 03:37
2. No One Gets Out Alive 03:28
3. Reflections of Madness 03:08
4. Near Dark 04:29
5. Through the Void 06:55
6. Haunting the Night 03:32
7. Twisting the Blade 03:43
8. Vengeance 02:16
9. Becoming a Beast 03:51
******************************
Total playing time: 34:59


(IMG:https://metalarea.org/images/youtube.png)

Technical info
(IMG:https://metalarea.org/images/spectrogram/2017_Jul/f34a51686dca0e7c4bb79efe0fe1abec.png)
Input File: 04-Near Dark.mp3
Channels : 2
Sample Rate : 44100
Precision : 16-bit
Duration : 00:04:32.41 = 12013281 samples = 20430.8 CDDA sectors
File Size : 11.1M
Bit Rate : 325k
Sample Encoding: MPEG audio (layer I, II or III)
Comments :
Title=Near Dark
Artist=Stereo Nasty
Album=Twisting The Blade
Tracknumber=4
Year=2017
Genre=Heavy Metal



Register


Go to the top of the page
  Insert nick Quick quote
+Quote Post
 
Start new topic
Replies (1 - 4)
post Jul 2 2017, 08:57:48
Post #2

No More Tears
**************
Group: Металариец
Posts: 5,014
Releases: 114
From: Тбилиси, Грузия
On Forums: 17 years 10 months
Thanks: 2451 time(s)
Georgia


groisman,
Это вы ко мне обрашаетесь? Вы эдоровы и в своем уме? Извинитесь и ведите себя прилично.
Go to the top of the page
  Insert nick Quick quote
+Quote Post
post Jul 2 2017, 10:05:29
Post #3

MDM-Thrash Metal
**************
Group: Металариец
Posts: 12,446
Releases: 1741
From: Одесса
On Forums: 16 years 9 months
Thanks: 40439 time(s)
Ukraine


Неплохо ведь, такой олд скульный хеви, без соплей и притарных соло поливалочек.


Thanks:
Go to the top of the page
  Insert nick Quick quote
+Quote Post
post Jul 3 2017, 19:49:04
Post #4

Мегаманьяк
***********
Group: Металариец
Posts: 1,823
Releases: 0
From: Russian Federation - St.Petersburg
On Forums: 15 years 2 months
Thanks: 524 time(s)
Russian Federation


Школа Accept! Предыдущий релиз у них конечно был по забористей, но и этот неплох! (IMG:style_emoticons/default/20.gif) (IMG:style_emoticons/default/banana.gif)
Go to the top of the page
  Insert nick Quick quote
+Quote Post
post Sep 10 2017, 14:08:25
Post #5

Наливай!
**************
Group: Металариец
Posts: 6,427
Releases: 27
From: Москва-Бибирево
On Forums: 16 years 2 months
Thanks: 3341 time(s)
Russian Federation


Действительно добротный Хэви. Берём!.
Go to the top of the page
  Insert nick Quick quote
+Quote Post

Reply to this topicStart new topic
2 User(s) are reading this topic (2 Guests and 0 Anonymous Users)
0 Members:

 



- Lo-Fi Version Support form
Copyrights and abuse reports form
Time is now: 26th May 2024 - 18:53:58