Welcome Guest ( Log In | Register )

> Construct - Observations (2017), Melodic Death Metal
post Jul 14 2017, 04:28:38
Post #1

Аннигилятор пивА
Group Icon
Group: V.I.P
Posts: 52,358
Releases: 16555
From: Koenigsberg - TILZIT
On Forums: 13 years 4 months
Thanks: 362675 time(s)
Russian Federation


(IMG:http://metalarea.org/images/audiocovers/2017_Jul/acov_tid291528_thumb.jpg)

*Artist: Construct
*Album: Observations
*Year: 2017
*Genre: Melodic Death Metal
*Country: Sweden (IMG:http://metalarea.org/forum/style_images/flags/Sweden.png)
*Format: mp3@CBR320kbps
*Size: 112MB

Tracklist:
01. The Oppressor 04:27
02. Progress Into Depravity 03:36
03. A Lost Cause 03:45
04. Primal Weakness 03:32
05. Neanderthal Inside 03:38
06. Introspection 04:52
07. Relapse 01:40
08. Indecisive Minds 04:22
09. Viral Disease 04:04
10. Breaking Point 06:14
11. Terracide 03:39
12. Mass Psychosis 04:29
******************************
Total playing time: 48:13




Extended info
Influence: At The Gates, old In Flames, The Haunted, Soilwork, Dark Tranquility...
Tuomas Ojajärvi - Guitars
Kalle Wahllöf - Drums
Mats Hoas - Bass
Daniel Valström - Vocals (Quest of Aidance, Syconaut)


Technical info
(IMG:http://metalarea.org/images/spectrogram/2017_Jul/8b7930e47faf3d079e8952d9f2f55f8f.png)
Input File: 02 - Progress Into Depravity.mp3
Channels : 2
Sample Rate : 44100
Precision : 16-bit
Duration : 00:03:36.14 = 9531554 samples = 16210.1 CDDA sectors
File Size : 8.76M
Bit Rate : 324k
Sample Encoding: MPEG audio (layer I, II or III)
Comments :
Title=Progress Into Depravity
Artist=Construct
Album=Observations
Tracknumber=2/12
Year=2017



Register


Go to the top of the page
  Insert nick Quick quote
+Quote Post
 
Start new topic
Replies (1 - 8)
post Jul 14 2017, 04:40:28
Post #2

Аннигилятор пивА
Group Icon
Group: V.I.P
Posts: 52,358
Releases: 16555
From: Koenigsberg - TILZIT
On Forums: 13 years 4 months
Thanks: 362675 time(s)
Russian Federation


mirror
Register


Go to the top of the page
  Insert nick Quick quote
+Quote Post
post Jul 14 2017, 07:52:53
Post #3

MDM-Thrash Metal
**************
Group: Металариец
Posts: 8,881
Releases: 676
From: Одесса
On Forums: 12 years 2 months
Thanks: 18760 time(s)
Ukraine


Ура! Так как в этом году хороший мелодез явление крайне редкое, посему каждый хороший опус на вес золота...
Хороший материал выдали шведы. Добротный олд скульный МДМ, насквозь пропитанный душком In Flames & Dark Tranquillity


Go to the top of the page
  Insert nick Quick quote
+Quote Post
post Jul 15 2017, 16:11:52
Post #4

Ъ
**************
Group: Металариец
Posts: 9,713
Releases: 9
On Forums: 10 years 9 months
Thanks: 1903 time(s)
Sweden


Группа как была, так и осталась прилежным третьесортом.

PS Вот это вот серое и унылое - лучшее от IF и DT? (IMG:style_emoticons/default/hmm.gif)
Go to the top of the page
  Insert nick Quick quote
+Quote Post
post Jul 15 2017, 16:26:37
Post #5

MDM-Thrash Metal
**************
Group: Металариец
Posts: 8,881
Releases: 676
From: Одесса
On Forums: 12 years 2 months
Thanks: 18760 time(s)
Ukraine


ЦИТАТА(DenisKov @ Jul 15 2017, 18:11:52) *
лучшее от IF и DT? (IMG:style_emoticons/default/hmm.gif)

ну не худшее так это уж точно! (IMG:style_emoticons/default/bye.gif)
Go to the top of the page
  Insert nick Quick quote
+Quote Post
post Jul 15 2017, 17:33:12
Post #6

Ъ
**************
Group: Металариец
Posts: 9,713
Releases: 9
On Forums: 10 years 9 months
Thanks: 1903 time(s)
Sweden


Мне кажется у ДТ лучшее это атмосфера и вокал, а у IF это мелодизм. Тут нет ничего.
Go to the top of the page
  Insert nick Quick quote
+Quote Post
post Jul 15 2017, 19:26:00
Post #7
BAN
Banned till
Oct 30 2019, 13:48:48



ЦИТАТА(DenisKov @ 15th July 2017 - 19:33:12) *
ну не худшее так это уж точно!

Я ведь проверю.
Go to the top of the page
  Insert nick Quick quote
+Quote Post
post Oct 4 2019, 04:13:32
Post #8

Четыре Литра
****
Group: Металариец
Posts: 328
Releases: 0
On Forums: 10 years 8 months
Thanks: 4 time(s)
South Korea


Can someone reupload this album please? Many thanks in advance.
Go to the top of the page
  Insert nick Quick quote
+Quote Post
post Oct 7 2019, 14:56:07
Post #9


Group Icon
Group: S-moderation team
Posts: 12,073
Releases: 1439
From: Zagreb
On Forums: 8 years 7 months
Thanks: 52707 time(s)
Croatia


Register


Thanks:
Go to the top of the page
  Insert nick Quick quote
+Quote Post

Reply to this topicStart new topic
1 User(s) are reading this topic (1 Guests and 0 Anonymous Users)
0 Members:

 



- Lo-Fi Version Support form
Copyrights and abuse reports form
Time is now: 19th October 2019 - 01:20:38