Welcome Guest ( Log In | Register )

Объявления

* gmail.com упорно продолжает считать почту с нас "unsolicited" и отбивает в том числе и письма активации, поэтому просьба использовать альтернативные почтовые ящики.
------------
* gmail.com continues reject all mail from us as "unsolicited" (activation mails too) therefore please use alternate mail servers.
> Lunatii - Gibbet Of Montfaucon/Rotting Heart [ep] (2017), Black Metal (D6)
post Jul 29 2017, 07:40:16
Post #1

Group: Дух
Posts: 6
Releases: 4
On Forums: 9 years 6 months
Thanks: 28 time(s)
Russian Federation


(IMG:https://metalarea.org/images/audiocovers/2017_Jul/acov_tid292201_thumb.jpg)

*Artist: Lunatii
*Album: Gibbet Of Montfaucon/Rotting Heart [ep]
*Year: 2017
*Genre: Black Metal
*Country: Russian Federation (IMG:https://metalarea.org/forum/style_images/flags/Russian%20Federation.png)
*Format: mp3@CBR320kbps
*Size: 24MB

Tracklist:
01. Монфокон / Gibbet of Montfaucon
02. Гниющее Сердце / Rotting Heart
******************************
Total playing time: 10:03


Preview 2

Extended info
Rough & Raw Mixesss from Upcoming Album 'DEPROSORRYUM'.


Technical info
(IMG:https://metalarea.org/images/spectrogram/2017_Jul/dcf2bca2b698cb9f38e2aa22b5cf64ef.png)
Input File: 02. Гниющее Сердце.mp3
Channels : 2
Sample Rate : 44100
Precision : 16-bit
Duration : 00:06:06.15 = 16147303 samples = 27461.4 CDDA sectors
File Size : 14.6M
Bit Rate : 320k
Sample Encoding: MPEG audio (layer I, II or III)
Comments :
Title=Гниющее Сердце / Rotting Heart
Artist=Lunatii
Album=Gibbet of Montfaucon / Rotting Heart (E.P.)
Tracknumber=2
Year=2017
Genre=Black Metal



Register


Go to the top of the page
  Insert nick Quick quote
+Quote Post
 
Start new topic
Replies (1 - 3)
post Aug 13 2017, 09:38:04
Post #2

практически всеядное
****
Group: Металариец
Posts: 354
Releases: 0
On Forums: 15 years 1 month
Thanks: 206 time(s)
Russian Federation


АРХИВ БИТЫЙ
Go to the top of the page
  Insert nick Quick quote
+Quote Post
post Sep 15 2023, 16:35:23
Post #3

Три Литра
***
Group: Завсегдатай
Posts: 289
Releases: 0
On Forums: 11 years 11 months
Thanks: 6 time(s)
Iran


any Flac please...
Go to the top of the page
  Insert nick Quick quote
+Quote Post
post Sep 15 2023, 17:16:50
Post #4

Три Литра
***
Group: Завсегдатай
Posts: 200
Releases: 0
On Forums: 4 years 7 months
Thanks: 128 time(s)
Unknown


QUOTE(amirhossien1371 @ Sep 15 2023, 17:35:23) *
any Flac please...

it will be more efficient if you make a list of all bands and albums you need and post them all in one post in this thread here, instead of spamming every thread on the forum. See how others are doing it, on the last page of that thread.


Thanks:
Go to the top of the page
  Insert nick Quick quote
+Quote Post

Reply to this topicStart new topic
1 User(s) are reading this topic (1 Guests and 0 Anonymous Users)
0 Members:

 



- Lo-Fi Version Support form
Copyrights and abuse reports form
Time is now: 26th May 2024 - 18:58:14