Welcome Guest ( Log In | Register )

> Nexul - Paradigm Of Chaos (2017), Black/Death Metal
post Jul 29 2017, 10:38:49
Post #1

Правь статус, ####!111
**************
Group: Металариец
Posts: 2,299
Releases: 1852
From: Praha
On Forums: 7 years 3 months
Thanks: 49084 time(s)
Czech Republic


(IMG:http://metalarea.org/images/audiocovers/2017_Jul/acov_tid292211_thumb.jpg)

*Artist: Nexul
*Album: Paradigm Of Chaos
*Year: 2017
*Genre: Black/Death Metal
*Country: United States (IMG:http://metalarea.org/forum/style_images/flags/United%20States.png)
*Format: mp3@CBR320kbps
*Size: 96MB

Tracklist:
1. Memoriam 02:55
2. Hexecration 05:16
3. Wrathful Chaos 02:43
4. Dark God of Paradox & Eternal 04:26
5. Leviathan Unbound 03:39
6. Chaosipher Tower 05:14
7. Serpent of Acosmic Darkness 05:45
8. Paradigm of Chaos 00:22
9. Bringer of Pandimensional Disrupt 03:31
10. Lord of the Bottomless Seas 01:10
11. Drowning Sephiroth 04:33
******************************
Total playing time: 39:34



Extended info
Hells Headbangers Records - HELLS 197


Technical info
(IMG:http://metalarea.org/images/spectrogram/2017_Jul/c1aa528d7cf0daebd7064402661c6ea0.png)
Input File: 02. Hexecration.mp3
Channels : 2
Sample Rate : 44100
Precision : 16-bit
Duration : 00:05:16.63 = 13963515 samples = 23747.5 CDDA sectors
File Size : 12.9M
Bit Rate : 325k
Sample Encoding: MPEG audio (layer I, II or III)
Comments :
Title=Hexecration
Artist=Nexul
Album=Paradigm of Chaos
Tracknumber=02/11
Year=2017
Genre=Black / Death Metal



Register


Go to the top of the page
  Insert nick Quick quote
+Quote Post
 
Start new topic
Replies (1 - 3)
post Jul 29 2017, 19:44:09
Post #2

Добрейшей души Мегаманьяк
***********
Group: Металариец
Posts: 1,891
Releases: 0
From: Bashkortostan, Өфө
On Forums: 13 years 5 months
Thanks: 928 time(s)
Russian Federation


Хороший козлометал
Go to the top of the page
  Insert nick Quick quote
+Quote Post
post Mar 4 2018, 10:54:52
Post #3

Пять Литров
*****
Group: Металариец
Posts: 467
Releases: 0
On Forums: 5 years 4 days
Thanks: 37 time(s)
Unknown


Yeah! Very good!
(IMG:style_emoticons/default/true_black.gif) (IMG:style_emoticons/default/true_black.gif)
Go to the top of the page
  Insert nick Quick quote
+Quote Post
post Dec 26 2019, 21:49:08
Post #4

melofags sniper
**************
Group: Металариец
Posts: 6,286
Releases: 0
On Forums: 13 years 4 months
Thanks: 6936 time(s)
Unknown


Great material (IMG:style_emoticons/default/9.gif)


Thanks:
Go to the top of the page
  Insert nick Quick quote
+Quote Post

Reply to this topicStart new topic
1 User(s) are reading this topic (1 Guests and 0 Anonymous Users)
0 Members:

 



- Lo-Fi Version Support form
Copyrights and abuse reports form
Time is now: 26th July 2021 - 22:03:06