Welcome Guest ( Log In | Register )

> Deadlife - Where Life Ends (2017), Depressive Black Metal
post Aug 8 2017, 18:47:57
Post #1

Четыре Литра
****
Group: Металариец
Posts: 381
Releases: 213
On Forums: 9 years 2 months
Thanks: 6202 time(s)
Unknown


(IMG:https://metalarea.org/images/audiocovers/2017_Aug/acov_tid292776_thumb.jpg)

*Artist: Deadlife
*Album: Where Life Ends
*Year: 2017
*Genre: Depressive Black Metal
*Country: Sweden (IMG:https://metalarea.org/forum/style_images/flags/Sweden.png)
*Format: mp3@CBR320kbps
*Size: 102MB

Tracklist:
1. It will only get worse 05:52
2. Please don't save me 06:42
3. The wounds that you gave 06:51
4. I was almost human 06:26
5. Worms 04:03
6. Clarity of thought 01:10
7. Where life ends 07:14
8. The depth 01:39
9. Wasted away 04:19
******************************
Total playing time: 44:16



Extended info
Special for Metalarea.org


Technical info
(IMG:https://metalarea.org/images/spectrogram/2017_Aug/9cfa85bcef6c70ca15633d00722f9b0d.png)
Input File: Deadlife - Where life ends (Album) - 01 It will only get worse.mp3
Channels : 2
Sample Rate : 44100
Precision : 16-bit
Duration : 00:05:52.22 = 15532682 samples = 26416.1 CDDA sectors
File Size : 14.1M
Bit Rate : 321k
Sample Encoding: MPEG audio (layer I, II or III)
Comments :
Title=It will only get worse
Artist=Deadlife
Album=Where life ends (Album)
Tracknumber=1
Year=2017



Register


Go to the top of the page
  Insert nick Quick quote
+Quote Post
 
Start new topic
Replies (1 - 2)
post Aug 8 2017, 20:57:25
Post #2

ME[ta]LLOMAN
**************
Group: Металариец
Posts: 5,020
Releases: 3
From: Avdeyevka
On Forums: 15 years 7 months
Thanks: 2072 time(s)
Honduras


ниочём... (IMG:style_emoticons/default/21.gif)


Thanks:
(1) smysl,
Go to the top of the page
  Insert nick Quick quote
+Quote Post
post Nov 24 2017, 08:10:50
Post #3

赑屃
***
Group: Завсегдатай
Posts: 246
Releases: 5
From: Луганск
On Forums: 4 years 8 months
Thanks: 130 time(s)
Russian Federation


*188 Deadlife - Where life ends (Full-Album) 2017 https://youtu.be/fZQYWO8LmAQ

Ещё одна порция шведской депры, общее настроение и темп приближаются порой к фунерал думу, чувак не сбавляет оборотов, приближаясь по продуктивности к итальянцу Вардан.. Неплохо, но чувствуется недостаток музыкальных идей.. Самая интересная композиция здесь - 07. Where Life Ends.
Go to the top of the page
  Insert nick Quick quote
+Quote Post

Reply to this topicStart new topic
1 User(s) are reading this topic (1 Guests and 0 Anonymous Users)
0 Members:

 



- Lo-Fi Version Support form
Copyrights and abuse reports form
Time is now: 6th December 2021 - 01:07:36