Welcome Guest ( Log In | Register )

> Cartilage - Dialect Of The Dead (2017), Old School Death Metal/Grind (D5)
post Aug 10 2017, 06:08:44
Post #1
BAN
Banned till
Aug 21 2022, 13:53:24



(IMG:http://metalarea.org/images/audiocovers/2017_Aug/acov_tid292812_thumb.jpg)

*Artist: Cartilage
*Album: Dialect Of The Dead
*Year: 2017
*Genre: Old School Death Metal/Grind
*Country: United States (IMG:http://metalarea.org/forum/style_images/flags/United%20States.png)
*Format: mp3@CBR320kbps
*Size: 67MB

Tracklist:
01. Intro 01:24
02. Half the Man I Used to Be 02:09
03. Gurgitor 02:18
04. Entangled in Innards 02:15
05. Cannot Stop the Clot 03:25
06. Chopped and Churned 04:01
07. S Is for Surgery 02:00
08. El Necrocabra 02:29
09. Back Seat Victim 02:50
10. Dialect of the Dead 03:16
******************************
Total playing time: 26:07




Extended info
Adam Houmam - Drums (ION)
Teresa Wallace - Guitars (Feast, ex-Repulsive Infestation, ex-Necromantic Decay)
Michael Flory - Guitars (Logistic Slaughter, Septicaemia)
Mark Wallace - Vocals (Septicaemia, Feast, ex-Necromantic Decay, ex-Viral)
Nick Willbrand - Bass (2016-present) See also: Continuum, Eviscerated, ex-Flesh Consumed, ex-Feast
Michael Chavez - Guitars (Hemotoxin, ex-Apothesary)


Technical info
(IMG:http://metalarea.org/images/spectrogram/2017_Aug/66e1440b7dd3cbb318996faa516d3818.png)
Input File: 02 Half the Man I Use to Be.mp3
Channels : 2
Sample Rate : 44100
Precision : 16-bit
Duration : 00:02:09.66 = 5718050 samples = 9724.57 CDDA sectors
File Size : 6.04M
Bit Rate : 372k
Sample Encoding: MPEG audio (layer I, II or III)
Comments :
Title=Half the Man I Use to Be
Artist=Cartilage
Album=Dialect Of The Dead
Tracknumber=2
Year=2017
Genre=Death Metal



Register


Go to the top of the page
  Insert nick Quick quote
+Quote Post
 
Start new topic
Replies (1 - 1)
post May 13 2022, 12:55:36
Post #2

hearer & reader
**************
Group: Металариец
Posts: 10,317
Releases: 211
From: Moscow
On Forums: 14 years 11 months
Thanks: 12585 time(s)
Russian Federation


Более правильный рип
Register


Thanks:
Go to the top of the page
  Insert nick Quick quote
+Quote Post

Reply to this topicStart new topic
1 User(s) are reading this topic (1 Guests and 0 Anonymous Users)
0 Members:

 



- Lo-Fi Version Support form
Copyrights and abuse reports form
Time is now: 11th August 2022 - 18:42:46