Welcome Guest ( Log In | Register )

> Arthois - Manifestación Repentina De Una Verdad (2017), Thrash/Groove Metal
post Aug 27 2017, 21:13:31
Post #1

Правь статус, ####!111
**************
Group: Металариец
Posts: 26,734
Releases: 19295
From: Г.Харьков
On Forums: 9 years 2 months
Thanks: 386285 time(s)
Unknown


(IMG:https://metalarea.org/images/audiocovers/2017_Aug/acov_tid293686_thumb.jpg)

*Artist: Arthois
*Album: Manifestación Repentina De Una Verdad
*Year: 2017
*Genre: Thrash/Groove Metal
*Country: Argentina (IMG:https://metalarea.org/forum/style_images/flags/Argentina.png)
*Format: mp3@CBR320kbps
*Size: 81MB

Tracklist:
1. Nada Mas De Mi
2. Cuanta Hipocresía
3. Hablando Por Hablar
4. Blackwater
5. En La Calle
6. Más Allá De Lo Que Ves
7. Epiphany
8. Tu Dia
9. Architects Of Hate
******************************
Total playing time: 34:27



Extended info
В ЛОУ


Technical info
(IMG:https://metalarea.org/images/spectrogram/2017_Aug/c276e4833abc662ff6687ed1072d9a65.png)
Input File: 2.Cuanta Hipocres?a.mp3
Channels : 2
Sample Rate : 44100
Precision : 16-bit
Duration : 00:02:45.18 = 7284218 samples = 12388.1 CDDA sectors
File Size : 7.31M
Bit Rate : 354k
Sample Encoding: MPEG audio (layer I, II or III)
Comments :
Title=Cuanta HipocresГ­a
Artist=Arthois
Album=ManifestaciГіn Repentina De Una Verdad
Tracknumber=2
Year=2017
Genre=Thrash Metal



Register


Go to the top of the page
  Insert nick Quick quote
+Quote Post
 
Start new topic
Replies (1 - 1)
post Aug 29 2017, 11:23:51
Post #2

ME[ta]LLOMAN
**************
Group: Металариец
Posts: 5,010
Releases: 3
From: Avdeyevka
On Forums: 15 years 3 months
Thanks: 2060 time(s)
Honduras


так-то - большая редкость, когда заявленный тег - соответцтвует содержимому..
..неплохой экскурс в прошлый век, например (IMG:style_emoticons/default/9.gif)


Thanks:
Go to the top of the page
  Insert nick Quick quote
+Quote Post

Reply to this topicStart new topic
2 User(s) are reading this topic (2 Guests and 0 Anonymous Users)
0 Members:

 



- Lo-Fi Version Support form
Copyrights and abuse reports form
Time is now: 2nd August 2021 - 13:13:10