Welcome Guest ( Log In | Register )

> All My Sins - Lunar/Solar [ep] (2017), Black Metal
post Aug 31 2017, 12:01:31
Post #1

Пять Литров
*****
Group: Металариец
Posts: 412
Releases: 81
On Forums: 7 years 7 months
Thanks: 1689 time(s)
Serbia


(IMG:http://metalarea.org/images/audiocovers/2017_Aug/acov_tid293829_thumb.jpg)

*Artist: All My Sins
*Album: Lunar/Solar [ep]
*Year: 2017
*Genre: Black Metal
*Country: Serbia (IMG:http://metalarea.org/forum/style_images/flags/Serbia.png)
*Format: mp3@CBR320kbps
*Size: 47MB

Tracklist:
1. Jeka Prve Kiše
2. Pod Mesecom Prastari Hrast
3. Pomen Usnulom Suncu
4. Zbogom
******************************
Total playing time: 21:47

Technical info
(IMG:http://metalarea.org/images/spectrogram/2017_Aug/04132ea4eae4a0ce3a2fe25e7e241091.png)
Input File: 01. Jeka Prve Ki?e.mp3
Channels : 2
Sample Rate : 44100
Precision : 16-bit
Duration : 00:03:14.58 = 8581022 samples = 14593.6 CDDA sectors
File Size : 7.79M
Bit Rate : 320k
Sample Encoding: MPEG audio (layer I, II or III)
Comments :
Title=Jeka Prve KiЕЎe
Artist=All My Sins
Album=Lunar / Solar
Tracknumber=1
Year=2017



Register


Go to the top of the page
  Insert nick Quick quote
+Quote Post
 
Start new topic
Replies (1 - 4)
post Aug 31 2017, 13:22:03
Post #2

Два Литра
**
Group: Завсегдатай
Posts: 182
Releases: 0
On Forums: 7 years 3 months
Thanks: 58 time(s)
Unknown




Thanks:
Go to the top of the page
  Insert nick Quick quote
+Quote Post
post Sep 1 2017, 00:03:06
Post #3

Пять Литров
*****
Group: Металариец
Posts: 431
Releases: 73
From: italy
On Forums: 12 years 11 months
Thanks: 1640 time(s)
Italy


Surprisingly good.


Thanks:
Go to the top of the page
  Insert nick Quick quote
+Quote Post
post Oct 8 2018, 13:16:18
Post #4

добрый мизантроп
**************
Group: Металариец
Posts: 2,237
Releases: 1
From: Минск
On Forums: 10 years 7 months
Thanks: 1041 time(s)
Madagascar


Good standard perfect BM, a bit melodic, 9/10
4th songs title a bit dangerous, but I translated - its safe.
Go to the top of the page
  Insert nick Quick quote
+Quote Post
post Oct 8 2018, 13:27:24
Post #5

добрый мизантроп
**************
Group: Металариец
Posts: 2,237
Releases: 1
From: Минск
On Forums: 10 years 7 months
Thanks: 1041 time(s)
Madagascar


320 from dark
Register



Thanks:
Go to the top of the page
  Insert nick Quick quote
+Quote Post

Reply to this topicStart new topic
2 User(s) are reading this topic (2 Guests and 0 Anonymous Users)
0 Members:

 



- Lo-Fi Version Support form
Copyrights and abuse reports form
Time is now: 20th June 2021 - 22:53:42