Welcome Guest ( Log In | Register )

> Mortigor & Schattenfang - Cinis Ad Cinerem [split] (2016), Black Metal | Raw Black Metal
post Sep 8 2017, 03:31:20
Post #1

Правь статус, ####!616
**************
Group: Металариец
Posts: 6,350
Releases: 4838
From: 55°35’N 38°08’E
On Forums: 12 years 11 months
Thanks: 89410 time(s)
Unknown


(IMG:http://metalarea.org/images/audiocovers/2017_Sep/acov_tid294285_thumb.jpg)

*Artist: Mortigor & Schattenfang
*Album: Cinis Ad Cinerem [split]
*Year: 2016
*Genre: Black Metal | Raw Black Metal
*Country: Costa Rica (IMG:http://metalarea.org/forum/style_images/flags/Costa%20Rica.png) | Germany (IMG:http://metalarea.org/forum/style_images/flags/Germany.png)
*Format: mp3@CBR320kbps
*Size: 198MB

Tracklist:
Mortigor:
1.Fracto Silentio 02:00
2.Blessings in Genocide 06:21
3.Vortex of the Perpetual Blakended Felling 05:32
4.Endless Nighty Forest 08:59
5.Noche Carmesí 03:41
6.Black Bridge 06:11
7.Arcanas's Awakening 07:05
8.Rise of the Dark Side 07:02

Schattenfang:
9.Intro 01:12
10.Kalt 03:18
11....Vom Grabentod 04:43
12.An der Eiche 04:46
13.Klagenacht 06:32
14.Auf der Reise 03:46
15.Des Herbstes Schatten 05:12
16.Sehnsucht: Traum 05:25
17.Der letzte Marsch 04:19
******************************
Total playing time: 1:26:04



Technical info
(IMG:http://metalarea.org/images/spectrogram/2017_Sep/5ab0abef47262e9dc2ef6c49aab0b9ae.png)
Input File: 02 Mortigor - Blessings in Genocide.mp3
Channels : 2
Sample Rate : 44100
Precision : 16-bit
Duration : 00:06:21.48 = 16823180 samples = 28610.9 CDDA sectors
File Size : 15.4M
Bit Rate : 322k
Sample Encoding: MPEG audio (layer I, II or III)
Comments :
Title=Blessings in Genocide
Artist=Mortigor
Album=Cinis Ad Cinerem
Tracknumber=2
Year=2016
Genre=Black Metal



Register


Go to the top of the page
  Insert nick Quick quote
+Quote Post
 
Start new topic
Replies (1 - 1)
post Jun 10 2021, 16:25:46
Post #2

Group Icon
Group: S-moderation team
Posts: 21,100
Releases: 1443
From: Zagreb
On Forums: 10 years 3 months
Thanks: 97331 time(s)
Croatia


Register


Thanks:
Go to the top of the page
  Insert nick Quick quote
+Quote Post

Reply to this topicStart new topic
1 User(s) are reading this topic (1 Guests and 0 Anonymous Users)
0 Members:

 



- Lo-Fi Version Support form
Copyrights and abuse reports form
Time is now: 18th June 2021 - 05:47:25