Welcome Guest ( Log In | Register )

> Razgate - Feral Evolution (2017), Thrash/Heavy Metal
post Sep 12 2017, 02:51:55
Post #1

Правь статус, ####!111
**************
Group: Металариец
Posts: 27,653
Releases: 20089
From: Г.Харьков
On Forums: 9 years 5 months
Thanks: 406429 time(s)
Unknown


(IMG:https://metalarea.org/images/audiocovers/2017_Sep/acov_tid294473_thumb.jpg)

*Artist: Razgate
*Album: Feral Evolution
*Year: 2017
*Genre: Thrash/Heavy Metal
*Country: Italy (IMG:https://metalarea.org/forum/style_images/flags/Italy.png)
*Format: mp3@CBR320kbps
*Size: 114MB

Tracklist:
01. Psychopatic Control
02. Night Painted Red
03. Pulling Out
04. Hear My Sentence
05. The Decline
06. Worms
07. My Revenge
08. Century of Cain
******************************
Total playing time: 49:42



Extended info



Technical info
(IMG:https://metalarea.org/images/spectrogram/2017_Sep/88d12ed33d76d73d49850334933a64af.png)
Input File: 02. Night Painted Red.mp3
Channels : 2
Sample Rate : 44100
Precision : 16-bit
Duration : 00:07:02.26 = 18621622 samples = 31669.4 CDDA sectors
File Size : 17.0M
Bit Rate : 321k
Sample Encoding: MPEG audio (layer I, II or III)
Comments :
Title=Night Painted Red
Artist=Razgate
Album=Feral Evolution
Tracknumber=2/8
Year=2017



Register


Go to the top of the page
  Insert nick Quick quote
+Quote Post
 
Start new topic
Replies (1 - 3)
post Sep 12 2017, 20:49:11
Post #2

Шесть Литров
******
Group: Металариец
Posts: 656
Releases: 0
On Forums: 12 years 3 months
Thanks: 168 time(s)
Ukraine


классный трэшак!!всем рекомендую ознакомиться!!!
Go to the top of the page
  Insert nick Quick quote
+Quote Post
post Jan 17 2019, 05:25:55
Post #3

Going home. Flying high.
**************
Group: Металариец
Posts: 13,507
Releases: 0
From: The Land of Shadows
On Forums: 15 years 2 months
Thanks: 27786 time(s)
Russian Federation


from web - 320 kbps
Register
Go to the top of the page
  Insert nick Quick quote
+Quote Post
post Oct 13 2021, 16:00:05
Post #4

Правь статус, ####!111
**************
Group: Металариец
Posts: 5,115
Releases: 468
From: MoscoW
On Forums: 14 years 10 months
Thanks: 7542 time(s)
Russian Federation


RAZGATE:
Go to the top of the page
  Insert nick Quick quote
+Quote Post

Reply to this topicStart new topic
2 User(s) are reading this topic (2 Guests and 0 Anonymous Users)
0 Members:

 



- Lo-Fi Version Support form
Copyrights and abuse reports form
Time is now: 15th October 2021 - 21:29:51