Welcome Guest ( Log In | Register )

> Five The Hierophant - Over Phlegethon (2017), Psychedelic/Avant-Garde Black Metal/Jazz
post Sep 21 2017, 22:16:34
Post #1

Аннигилятор пивА
Group Icon
Group: V.I.P
Posts: 52,360
Releases: 16550
From: Koenigsberg - TILZIT
On Forums: 14 years 11 months
Thanks: 367491 time(s)
Russian Federation


(IMG:http://metalarea.org/images/audiocovers/2017_Sep/acov_tid295007_thumb.jpg)

*Artist: Five The Hierophant
*Album: Over Phlegethon
*Year: 2017
*Genre: Psychedelic/Avant-Garde Black Metal/Jazz
*Country: United Kingdom (IMG:http://metalarea.org/forum/style_images/flags/United%20Kingdom.png)
*Format: mp3@CBR320kbps
*Size: 112MB

Tracklist:
01. Queen Over Phlegethon
02. Vampire
03. Seafarer
04. Der Geist Der Stets Verneint
05. Sepulchre
06. Omen Tree
******************************
Total playing time: 48:34




Extended info
Instrumental ritualistic soundscapes, a psychodelic fusion of black metal, jazz and post metal...


Technical info
(IMG:http://metalarea.org/images/spectrogram/2017_Sep/ed8ec41466eb4958bc1c557137ca5a9c.png)
Input File: 02 Vampire.mp3
Channels : 2
Sample Rate : 44100
Precision : 16-bit
Duration : 00:05:46.86 = 15296526 samples = 26014.5 CDDA sectors
File Size : 14.0M
Bit Rate : 324k
Sample Encoding: MPEG audio (layer I, II or III)
Comments :
Title=Vampire
Artist=Five The Hierophant
Album=Over Phlegethon
Tracknumber=2/6
Year=2017
Discnumber=1/1



Register


Go to the top of the page
  Insert nick Quick quote
+Quote Post
 
Start new topic
Replies (1 - 9)
post Sep 22 2017, 14:28:41
Post #2

Восемь Литров
********
Group: Металариец
Posts: 830
Releases: 0
On Forums: 13 years 6 months
Thanks: 371 time(s)
Poland


Очень интересно. Не проходим мимо.


Thanks:
Go to the top of the page
  Insert nick Quick quote
+Quote Post
post Nov 20 2017, 20:30:17
Post #3

Два Литра
**
Group: Завсегдатай
Posts: 155
Releases: 0
From: Харьков
On Forums: 13 years 5 months
Thanks: 10 time(s)
Ukraine


вот это крутой трип
Go to the top of the page
  Insert nick Quick quote
+Quote Post
post Jan 13 2018, 15:01:25
Post #4

Crush! Kill! Destroy!
**************
Group: Металариец
Posts: 5,681
Releases: 15
From: Kaliningrad
On Forums: 13 years 5 months
Thanks: 5398 time(s)
Russian Federation


Залейте плиз!
Go to the top of the page
  Insert nick Quick quote
+Quote Post
post Jan 13 2018, 15:19:32
Post #5

Аннигилятор пивА
Group Icon
Group: V.I.P
Posts: 52,360
Releases: 16550
From: Koenigsberg - TILZIT
On Forums: 14 years 11 months
Thanks: 367491 time(s)
Russian Federation


ЦИТАТА(Dmitry1977 @ Jan 13 2018, 14:01:25) *
Залейте плиз!

мирр
Register


Go to the top of the page
  Insert nick Quick quote
+Quote Post
post Jan 5 2020, 17:39:37
Post #6

Мегаманьяк
***********
Group: Металариец
Posts: 1,741
Releases: 289
On Forums: 12 years 5 months
Thanks: 6515 time(s)
Russian Federation


mp3@320
Register


Go to the top of the page
  Insert nick Quick quote
+Quote Post
post Mar 3 2021, 10:36:00
Post #7

Четыре Литра
****
Group: Металариец
Posts: 386
Releases: 0
On Forums: 11 years 11 months
Thanks: 105 time(s)
Russian Federation


Друзья, перезалейте пожалуйста...


Thanks:
(1) Aamiinaa,
Go to the top of the page
  Insert nick Quick quote
+Quote Post
post Mar 23 2021, 00:36:23
Post #8

Литр
*
Group: Подсевший
Posts: 68
Releases: 0
On Forums: 13 years 3 days
Thanks: 58 time(s)
Russian Federation


QUOTE(KKK1488 @ 3rd March 2021 - 13:36:00) *
Друзья, перезалейте пожалуйста...

Я скачал по ссылке из предыдущего поста, единственная живая
Register
Go to the top of the page
  Insert nick Quick quote
+Quote Post
post Mar 23 2021, 14:29:08
Post #9

градусы контрастов
**************
Group: Металариец
Posts: 4,826
Releases: 0
On Forums: 5 years 3 months
Thanks: 3122 time(s)
Unknown


Register


Thanks:
(1) tormoz,
Go to the top of the page
  Insert nick Quick quote
+Quote Post
post Apr 7 2021, 16:05:00
Post #10

Group: Дух
Posts: 5
Releases: 0
From: Москва
On Forums: 1 year 1 week
Thanks: 0 time(s)
Russian Federation


Думаю после мозговыносящего Through Aureate Void, интерес к первому альбому возрастет...
Go to the top of the page
  Insert nick Quick quote
+Quote Post

Reply to this topicStart new topic
1 User(s) are reading this topic (1 Guests and 0 Anonymous Users)
0 Members:

 



- Lo-Fi Version Support form
Copyrights and abuse reports form
Time is now: 5th May 2021 - 23:39:37