Welcome Guest ( Log In | Register )

> Godhead Machinery - Ouroboros (2017), Black/Death Metal
post Sep 28 2017, 17:13:47
Post #1

Правь статус, ####!111
**************
Group: Металариец
Posts: 30,867
Releases: 22750
From: Г.Харьков
On Forums: 10 years 6 months
Thanks: 475874 time(s)
Unknown


(IMG:https://metalarea.org/images/audiocovers/2017_Sep/acov_tid295295_thumb.jpg)

*Artist: Godhead Machinery
*Album: Ouroboros
*Year: 2017
*Genre: Black/Death Metal
*Country: Sweden (IMG:https://metalarea.org/forum/style_images/flags/Sweden.png)
*Format: mp3@CBR320kbps
*Size: 67MB

Tracklist:
01. Ouroboros
02. The Plague
03. Tithe
04. A House Divided
05. Council of Nicaea
06. Revelation
07. Praise the Flesh
******************************
Total playing time: 31:46



Extended info



Technical info
(IMG:https://metalarea.org/images/spectrogram/2017_Sep/9512b7124f362724cd16b8ff872a5e2b.png)
Input File: 02 The Plague.mp3
Channels : 2
Sample Rate : 44100
Precision : 16-bit
Duration : 00:06:20.49 = 16779433 samples = 28536.5 CDDA sectors
File Size : 15.3M
Bit Rate : 322k
Sample Encoding: MPEG audio (layer I, II or III)
Comments :
Title=The Plague
Artist=Godhead Machinery
Album=Ouroboros
Tracknumber=2/7
Year=2017
Genre=9
Discnumber=1/1



Register


Go to the top of the page
  Insert nick Quick quote
+Quote Post
 
Start new topic
Replies (1 - 6)
post Sep 28 2017, 19:15:02
Post #2

Правь статус, ####!111
**************
Group: Металариец
Posts: 30,867
Releases: 22750
From: Г.Харьков
On Forums: 10 years 6 months
Thanks: 475874 time(s)
Unknown


Register


Go to the top of the page
  Insert nick Quick quote
+Quote Post
post Sep 28 2017, 19:27:29
Post #3
BAN
Banned till
Dec 18 2036, 08:11:15



Х@рня,а не 320! Треск,перегруз ну и т.д. (IMG:style_emoticons/default/22.gif)


Thanks:
Go to the top of the page
  Insert nick Quick quote
+Quote Post
post Sep 28 2017, 19:29:29
Post #4

Правь статус, ####!111
**************
Group: Металариец
Posts: 51,932
Releases: 955
On Forums: 13 years 5 months
Thanks: 48739 time(s)
Russian Federation


ЦИТАТА(BLOODBATH @ Sep 28 2017, 22:27:29) *
Х@рня,а не 320! Треск,перегруз ну и т.д. (IMG:style_emoticons/default/22.gif)


Ждём экспертное заключение Олега и оправдания релизера. (IMG:style_emoticons/default/1488.gif)


Thanks:
(1) BLOODBATH,
Go to the top of the page
  Insert nick Quick quote
+Quote Post
post Sep 28 2017, 19:31:46
Post #5
BAN
Banned till
Dec 18 2036, 08:11:15



ЦИТАТА(vosmidesijatye @ Sep 28 2017, 22:29:29) *
Ждём экспертное заключение Олега и оправдания релизера. (IMG:style_emoticons/default/1488.gif)

По спектрам и так видно,плюс эксперты всегда при мне,мои ухи (IMG:style_emoticons/default/1488.gif)
Go to the top of the page
  Insert nick Quick quote
+Quote Post
post Sep 28 2017, 20:01:17
Post #6

Правь статус, ####!111
**************
Group: Металариец
Posts: 30,867
Releases: 22750
From: Г.Харьков
On Forums: 10 years 6 months
Thanks: 475874 time(s)
Unknown


Какие вам оправдания нужны?Это рип из тунца-такой продают.
у кого то есть лучший?


Thanks:
(1) AHBAnep,
Go to the top of the page
  Insert nick Quick quote
+Quote Post
post Feb 6 2022, 13:46:23
Post #7

Death Metal Warfare
**************
Group: Металариец
Posts: 2,891
Releases: 78
From: Technical Death из 90-х
On Forums: 12 years 4 months
Thanks: 7872 time(s)
Unknown


Наконец-таки удалось найти рип лучшего качества (хоть и не идеальный, но все же).
То, что было везде:
(IMG:https://i116.fastpic.org/thumb/2022/0206/d3/_dd9809d7526514f8c3ca813ae6d631d3.jpeg)

Что нашел
(IMG:https://i116.fastpic.org/thumb/2022/0206/7c/_88d96c73f90ea27892622ee08976217c.jpeg)
Register
Go to the top of the page
  Insert nick Quick quote
+Quote Post

Reply to this topicStart new topic
1 User(s) are reading this topic (1 Guests and 0 Anonymous Users)
0 Members:

 



- Lo-Fi Version Support form
Copyrights and abuse reports form
Time is now: 27th November 2022 - 03:50:54