Welcome Guest ( Log In | Register )

Объявления

* gmail.com упорно продолжает считать почту с нас "unsolicited" и отбивает в том числе и письма активации, поэтому просьба использовать альтернативные почтовые ящики.
------------
* gmail.com continues reject all mail from us as "unsolicited" (activation mails too) therefore please use alternate mail servers.
> Isle Of Avalon - Of Tulgey Wood And The Table Rounde (2017), Epic Folk/Power Metal
post Sep 30 2017, 15:58:10
Post #1

Аннигилятор пивА
Group Icon
Group: V.I.P
Posts: 52,567
Releases: 16538
From: Koenigsberg - TILZIT
On Forums: 17 years 11 months
Thanks: 371943 time(s)
Russian Federation


(IMG:https://metalarea.org/images/audiocovers/2017_Sep/acov_tid295439_thumb.jpg)

*Artist: Isle Of Avalon
*Album: Of Tulgey Wood And The Table Rounde
*Year: 2017
*Genre: Epic Folk/Power Metal
*Country: United Kingdom (IMG:https://metalarea.org/forum/style_images/flags/United%20Kingdom.png)
*Format: mp3@CBR320kbps
*Size: 130MB

Tracklist:
01. Questing Beast
02. Tulgey Wood
03. Tirra Lirra
04. Lyre Of Lyonesse
05. Kingsword
06. Queen Of Two Kingdoms
07. A Sword, A Horse, A Shield
08. True Born
09. Avalon
10. The Castle Argent
11. Arthur
******************************
Total playing time: 55:52




Extended info
A UK based Power Metal band with folk and medieval influences.
Inspired by Arthurian legend, magic and fantasy.

Jacob Erdman - Bass
Aimée Wyld - Keyboards
Alex Wyld - Vocals, Guitars (Cybernetic Witch Cult, Morgawr, ex-Æsir, ex-Tezarchaeon)
Fædon Diamantopoulos - Vocals (2014-present) See also: Hardraw, Myst
Julian Foster - Drums (Arcane North, Etherune, Tezarchaeon, Wreodan Healh, ex-Lymphoma, ex-Cimmarian Age, ex-Annwn, ex-Moat, ex-Nekantropy, ex-Carpe Mortem, ex-Credit to Dementia)


Technical info
(IMG:https://metalarea.org/images/spectrogram/2017_Sep/dad030af50ff1a335712f0a73b5407e3.png)
Input File: 02 - Tulgey Wood.mp3
Channels : 2
Sample Rate : 44100
Precision : 16-bit
Duration : 00:04:26.37 = 11746785 samples = 19977.5 CDDA sectors
File Size : 10.8M
Bit Rate : 325k
Sample Encoding: MPEG audio (layer I, II or III)
Comments :
Title=Tulgey Wood
Artist=Isle of Avalon
Album=Of Tulgey Wood and the Table Rounde
Tracknumber=2/11
Year=2017



Register


Go to the top of the page
  Insert nick Quick quote
+Quote Post
 
Start new topic
Replies (1 - 3)
post Sep 30 2017, 17:36:32
Post #2

Аннигилятор пивА
Group Icon
Group: V.I.P
Posts: 52,567
Releases: 16538
From: Koenigsberg - TILZIT
On Forums: 17 years 11 months
Thanks: 371943 time(s)
Russian Federation


MIRROR
Register
Go to the top of the page
  Insert nick Quick quote
+Quote Post
post Oct 2 2017, 00:38:02
Post #3

Шесть Литров
******
Group: Металариец
Posts: 569
Releases: 74
From: Asgard
On Forums: 15 years 6 months
Thanks: 2406 time(s)
Brazil


https://www.youtube.com/watch?v=Qc0dJSTnj78
Go to the top of the page
  Insert nick Quick quote
+Quote Post
post Oct 4 2017, 20:01:56
Post #4

No More Tears
**************
Group: Металариец
Posts: 5,014
Releases: 114
From: Тбилиси, Грузия
On Forums: 17 years 10 months
Thanks: 2451 time(s)
Georgia




Заблацкован. Плохо.


Thanks:
Go to the top of the page
  Insert nick Quick quote
+Quote Post

Reply to this topicStart new topic
2 User(s) are reading this topic (2 Guests and 0 Anonymous Users)
0 Members:

 



- Lo-Fi Version Support form
Copyrights and abuse reports form
Time is now: 26th May 2024 - 20:02:55