Welcome Guest ( Log In | Register )

Объявления

* gmail.com упорно продолжает считать почту с нас "unsolicited" и отбивает в том числе и письма активации, поэтому просьба использовать альтернативные почтовые ящики.
------------
* gmail.com continues reject all mail from us as "unsolicited" (activation mails too) therefore please use alternate mail servers.
> Crown Of Asteria - Rauðskinna (2017), Atmospheric Black/Doom Metal
post Oct 3 2017, 06:15:11
Post #1

Serial Uploader
Group Icon
Group: V.I.P
Posts: 42,944
Releases: 41005
From: Lithuania
On Forums: 16 years 1 month
Thanks: 526989 time(s)
Lithuania


(IMG:http://metalarea.org/images/audiocovers/2017_Oct/acov_tid295569_thumb.jpg)

*Artist: Crown Of Asteria
*Album: Rauðskinna
*Year: 2017
*Genre: Atmospheric Black/Doom Metal
*Country: United States (IMG:http://metalarea.org/forum/style_images/flags/United%20States.png)
*Format: mp3@CBR320kbps
*Size: 166MB

Tracklist:
01. 1497: Svartagaldur 06:49
02. The Black Path I:The Follower of Gottskálk 10:37
03. The Black Path II: Bound by Galdr 12:23
04. The Black Path III: The Depths of Hólar 11:12
05. The Black Path IV: I, Master 12:54
06. The Black Path V: Rauðskinna 14:52
07.1722:Til Helvítis 04:16
******************************
Total playing time: 1:13:03




Technical info
(IMG:http://metalarea.org/images/spectrogram/2017_Oct/12465c6589a7f53c46703a36e385f231.png)
Input File: 02. The Black Path IThe Follower of Gottskбlk.mp3
Channels : 2
Sample Rate : 44100
Precision : 16-bit
Duration : 00:10:37.14 = 28097742 samples = 47785.3 CDDA sectors
File Size : 25.5M
Bit Rate : 321k
Sample Encoding: MPEG audio (layer I, II or III)
Comments :
Title=The Black Path I:The Follower of GottskР±lk
Artist=Crown of Asteria
Album=RauСЂskinna
Tracknumber=2/7
Year=2017



Register


Go to the top of the page
  Insert nick Quick quote
+Quote Post
 
Start new topic
Replies (1 - 1)
post Oct 3 2017, 14:49:07
Post #2

Dark Ambient Shoujo
**********
Group: Металариец
Posts: 1,491
Releases: 5
On Forums: 15 years 6 months
Thanks: 1000 time(s)
Russian Federation


Register


Go to the top of the page
  Insert nick Quick quote
+Quote Post

Reply to this topicStart new topic
1 User(s) are reading this topic (1 Guests and 0 Anonymous Users)
0 Members:

 



- Lo-Fi Version Support form
Copyrights and abuse reports form
Time is now: 15th July 2024 - 22:12:03